Железный кулак 2 / The Man with the Iron Fists 2 (2015) BDRip

 

Создавать темы 12-Апр-2015 13:41

--Железный кулак 2 / The Man with the Iron Fists 2 (2015) BDRip-- Производство: США
Жанр: Боевик
Режиссер: Роэль Рейн
Продюсер: Марк Абрахам, Огден Гавански, Лиза Гудинг
Актеры: RZA, Кэри-Хироюки Тагава, Сахайак Бунсанакит, Пим Бабиер, Оушен Хоу, Грэйс Хуанг, Хой Линь, Шири Стивен Лавенштайн, Карл Нг, Дастин Нгуен
Описание фильма:
Шахтер Ли Кунг и его жена А Ни обнаружили раненного незнакомца Фаддеуса около деревни и дали ему убежище. После лечения он ввязался в конфликт со зловещим мастером Хо, его мерзким кланом Битл и ужасным Лордом Пи-
Дата мировой премьеры: 14 апреля 2015
Продолжительность: 01:30:25
Качество видео: BDRip (1080p)
Перевод: Любительский двухголосый (Sunny-Films)
Видео: MPEG-4 AVC, 1920x1080, 8869 Кбит/с
Аудио:
1. AC3, 2 ch, 192 Кбит/с - русский
2. AC3, 6 ch, 640 Кбит/с - английский-

MediaInfo:

Общее
Уникальный идентификатор : 180577910078445768182687525310887598406 (0x87DA0A59B7EA51FDBCF6D50E97A39946)
Полное имя : C:\NNM\Железный кулак\Zheleznyj kulak 2 2015 1080p.mkv
Формат : Matroska
Версия формата : Version 4 / Version 2
Размер файла : 6,12 Гбайт
Продолжительность : 1 ч. 30 м.
Общий поток : 9695 Кбит/сек
Дата кодирования : UTC 2015-04-11 23:56:25
Программа кодирования : mkvmerge v6.1.0 ('Old Devil') built on Mar 4 2013 09:10:42
Библиотека кодирования : libebml v1.3.0 + libmatroska v1.4.0
Видео
Идентификатор : 1
Формат : AVC
Формат/Информация : Advanced Video Codec
Профиль формата : [email protected]
Параметр CABAC формата : Да
Параметр ReFrames формата : 4 кадра
Идентификатор кодека : V_MPEG4/ISO/AVC
Продолжительность : 1 ч. 30 м.
Битрейт : 8869 Кбит/сек
Ширина : 1920 пикселей
Высота : 1080 пикселей
Соотношение сторон : 16:9
Частота кадров : 23,976 кадра/сек
Цветовое пространство : YUV
Субдискретизация насыщенности : 4:2:0
Битовая глубина : 8 бит
Тип развёртки : Прогрессивная
Бит/(Пиксели*Кадры) : 0.178
Размер потока : 5,48 Гбайт (89%)
Библиотека кодирования : x264 core 144 r2525 40bb568
Настройки программы : cabac=1 / ref=4 / deblock=1:0:0 / analyse=0x3:0x133 / me=umh / subme=7 / psy=1 / psy_rd=1.00:0.00 / mixed_ref=1 / me_range=16 / chroma_me=1 / trellis=1 / 8x8dct=1 / cqm=0 / deadzone=21,11 / fast_pskip=0 / chroma_qp_offset=-2 / threads=60 / lookahead_threads=8 / sliced_threads=0 / nr=0 / decimate=1 / interlaced=0 / bluray_compat=0 / constrained_intra=0 / bframes=3 / b_pyramid=2 / b_adapt=1 / b_bias=0 / direct=1 / weightb=1 / open_gop=0 / weightp=2 / keyint=250 / keyint_min=23 / scenecut=40 / intra_refresh=0 / rc_lookahead=40 / rc=2pass / mbtree=1 / bitrate=8869 / ratetol=1.0 / qcomp=0.60 / qpmin=0 / qpmax=69 / qpstep=4 / cplxblur=20.0 / qblur=0.5 / ip_ratio=1.40 / aq=1:1.00
Язык : English
Default : Да
Forced : Нет
Аудио #1
Идентификатор : 2
Формат : AC-3
Формат/Информация : Audio Coding 3
Расширение режима : CM (complete main)
Идентификатор кодека : A_AC3
Продолжительность : 1 ч. 30 м.
Вид битрейта : Постоянный
Битрейт : 192 Кбит/сек
Каналы : 2 канала
Расположение каналов : Front: L R
Частота : 48,0 КГц
Битовая глубина : 16 бит
Метод сжатия : С потерями
Размер потока : 124 Мбайт (2%)
Default : Да
Forced : Нет
Аудио #2
Идентификатор : 3
Формат : AC-3
Формат/Информация : Audio Coding 3
Расширение режима : CM (complete main)
Идентификатор кодека : A_AC3
Продолжительность : 1 ч. 30 м.
Вид битрейта : Постоянный
Битрейт : 640 Кбит/сек
Каналы : 6 каналов
Расположение каналов : Front: L C R, Side: L R, LFE
Частота : 48,0 КГц
Битовая глубина : 16 бит
Метод сжатия : С потерями
Размер потока : 414 Мбайт (7%)
Default : Нет
Forced : Нет
Меню
00:00:00.000 : en:00:00:00.000
00:04:46.661 : en:00:04:46.661
00:09:44.375 : en:00:09:44.375
00:13:03.116 : en:00:13:03.116
00:15:54.745 : en:00:15:54.745
00:20:53.085 : en:00:20:53.085
00:26:05.689 : en:00:26:05.689
00:30:07.305 : en:00:30:07.305
00:33:04.441 : en:00:33:04.441
00:37:55.023 : en:00:37:55.023
00:42:22.707 : en:00:42:22.707
00:47:48.407 : en:00:47:48.407
00:53:28.539 : en:00:53:28.539
00:55:57.020 : en:00:55:57.020
01:02:02.260 : en:01:02:02.260
01:05:19.499 : en:01:05:19.499
01:10:52.707 : en:01:10:52.707
01:15:58.220 : en:01:15:58.220
01:22:05.045 : en:01:22:05.045
01:25:48.894 : en:01:25:48.894
Скриншоты:
Яндекс.Метрика
Рейтинг@Mail.ru