Как поймать монстра / Lost River (2014) WEB-DLRip

 

Создавать темы 12-Апр-2015 12:32

--Как поймать монстра / Lost River (2014) WEB-DLRip-- Производство: США
Жанр: Фэнтези, триллер
Режиссер: Райан Гослинг
Продюсер: Райан Гослинг, Дэвид Ланкастер, Мишель Литвак
Актеры: Кристина Хендрикс, Иэн де Кестекер, Сирша Ронан, Мэтт Смит, Бен Мендельсон, Ева Мендес, Реда Катеб, Барбара Стил, Лендин Стюарт, Роб Забрески
Описание фильма:
История о матери-одиночке, которая побывала в темном подземном мире, в то время как ее сын нашел дорогу, ведущую в подводный секретный город.-
Дата мировой премьеры: 20 мая 2014
Дата российской премьеры: 9 апреля 2015
Продолжительность: 01:34:57
Качество видео: WEB-DLRip
Перевод: Любительский двухголосый (RAIM & NASTR)
Видео: XviD, 720x304, 1803 Кбит/с
Аудио: АС3, 2 ch, 384 Кбит/с

MediaInfo:

Общее
Полное имя : C:\NNM\Как поймать монстра\Pojmatj monstra 2014 WEB-DLRip.avi
Формат : AVI
Формат/Информация : Audio Video Interleave
Размер файла : 1,46 Гбайт
Продолжительность : 1 ч. 34 м.
Общий поток : 2196 Кбит/сек
Программа кодирования : VirtualDubMod 1.5.10.3
Видео
Идентификатор : 0
Формат : MPEG-4 Visual
Профиль формата : Advanced [email protected]
Параметр BVOP формата : 2
Параметр QPel формата : Нет
Параметр GMC формата : Без точки перехода
Параметр матрицы формата : Default (MPEG)
Режим смешивания : Сжатый битовый поток
Идентификатор кодека : XVID
Идентификатор кодека/Подсказка : XviD
Продолжительность : 1 ч. 34 м.
Битрейт : 1803 Кбит/сек
Ширина : 720 пикселей
Высота : 304 пикселя
Соотношение сторон : 2,35:1
Частота кадров : 23,976 кадра/сек
Цветовое пространство : YUV
Субдискретизация насыщенности : 4:2:0
Битовая глубина : 8 бит
Тип развёртки : Прогрессивная
Метод сжатия : С потерями
Бит/(Пиксели*Кадры) : 0.344
Размер потока : 1,20 Гбайт (82%)
Библиотека кодирования : XviD 73
Аудио
Идентификатор : 1
Формат : AC-3
Формат/Информация : Audio Coding 3
Расширение режима : CM (complete main)
Идентификатор кодека : 2000
Продолжительность : 1 ч. 34 м.
Вид битрейта : Постоянный
Битрейт : 384 Кбит/сек
Каналы : 2 канала
Расположение каналов : Front: L R
Частота : 48,0 КГц
Битовая глубина : 16 бит
Метод сжатия : С потерями
Размер потока : 261 Мбайт (17%)
Выравнивание : Разделение по промежуткам
Продолжительность промежутка : 42 мс. (1,00 видеокадр)
Время предзагрузки промежутка : 500 мс.
Скриншоты:
Яндекс.Метрика
Рейтинг@Mail.ru