Сен-Лоран. Стиль – это я / Saint Laurent (2014) BDRip [H.264/1080p]

 

Создавать темы 12-Апр-2015 00:45

--Сен-Лоран. Стиль – это я / Saint Laurent (2014) BDRip [H.264/1080p]-- Производство: France, Belgium / Mandarin Films, EuropaCorp, Orange Studio
Жанр: драма, биография
Режиссер: Бертран Бонелло
Продюсер: Эрик Альтмайер, Николас Альтмайер, Реми Бура
Актеры: Гаспар Ульель, Жереми Ренье, Луи Гаррель, Леа Сейду, Амира Касар, Эмилин Валаде, Хельмут Бергер, Миша Лекот, Валерия Бруни-Тедески, Валери Донзелли
Описание:
Конец 1960-х, модный дом молодого Ива Сен-Лорана процветает, а сам дизайнер переживает пьянящий успех и отчаяние. На богемных парижских вечеринках, в Марракеше, в полотнах Уорхолла и книгах Пруста Сен-Лоран ищет и ответы на вопросы, и вдохновение. Но лишь такому утонченному режиссеру, как Бертран Бонелло, удается не только рассказать историю уникального модельера, но и создать портрет эпохи с её диалогами, непомерными развлечениями и умением любой ценой проживать каждый момент жизни красиво...-
Рейтинг MPAA: R - Детям до 17 лет обязательно присутствие родителей
Дата мировой премьеры: 17 мая 2014
Дата российской премьеры: 16 октября 2014, «A-One Films», «Наше Кино»-Продолжительность: 02:30:23
Качество: BDRip (1080p)
Перевод: профессиональный (полное дублирование)
Субтитры: отсутствуют
Видео: MPEG-4 AVC/H.264, 1920 x 1040 (1,85:1), 8 890 kbps, 24.000 fps, 0.186 b/px
Аудио # 1: АС3, 6 ch, 384 kbps, 48 000 Hz - дублированный
Аудио # 2: DTS, 6 ch, 1509 kbps, 48 000 Hz - оригинальный (French)

MediaInfo

Код:
Общее
Уникальный идентификатор : 178169232094931665922067367590230314990 (0x860A255B6834223880F96A1143D54FEE)
Полное имя : F:\SEn.L0raN.2014.D.BDRip.1080p.mkv
Формат : Matroska
Версия формата : Version 2
Размер файла : 11,3 Гбайт
Продолжительность : 2 ч. 30 м.
Общий поток : 10,8 Мбит/сек
Дата кодирования : UTC 2015-04-11 06:04:20
Программа кодирования : mkvmerge v7.8.0 ('River Man') 64bit built on Mar 27 2015 16:31:37
Библиотека кодирования : libebml v1.3.1 + libmatroska v1.4.2
Видео
Идентификатор : 1
Формат : AVC
Формат/Информация : Advanced Video Codec
Профиль формата : [email protected]
Параметр CABAC формата : Да
Параметр ReFrames формата : 4 кадра
Идентификатор кодека : V_MPEG4/ISO/AVC
Продолжительность : 2 ч. 30 м.
Битрейт : 8890 Кбит/сек
Ширина : 1920 пикселей
Высота : 1040 пикселей
Соотношение сторон : 1,85:1
Режим частоты кадров : Постоянный
Частота кадров : 24,000 кадра/сек
Цветовое пространство : YUV
Субдискретизация насыщенности : 4:2:0
Битовая глубина : 8 бит
Тип развёртки : Прогрессивная
Бит/(Пиксели*Кадры) : 0.186
Размер потока : 9,12 Гбайт (80%)
Библиотека кодирования : x264 core 144 r2525 40bb568
Настройки программы : cabac=1 / ref=4 / deblock=1:0:0 / analyse=0x3:0x113 / me=umh / subme=8 / psy=1 / psy_rd=1.00:0.00 / mixed_ref=1 / me_range=16 / chroma_me=1 / trellis=1 / 8x8dct=1 / cqm=0 / deadzone=21,11 / fast_pskip=1 / chroma_qp_offset=-2 / threads=18 / lookahead_threads=3 / sliced_threads=0 / nr=0 / decimate=1 / interlaced=0 / bluray_compat=0 / constrained_intra=0 / bframes=3 / b_pyramid=2 / b_adapt=2 / b_bias=0 / direct=3 / weightb=1 / open_gop=0 / weightp=2 / keyint=240 / keyint_min=24 / scenecut=40 / intra_refresh=0 / rc_lookahead=50 / rc=2pass / mbtree=1 / bitrate=8890 / ratetol=1.0 / qcomp=0.60 / qpmin=0 / qpmax=69 / qpstep=4 / cplxblur=20.0 / qblur=0.5 / ip_ratio=1.40 / aq=1:1.00
Язык : English
Default : Да
Forced : Нет
Аудио #1
Идентификатор : 2
Формат : AC-3
Формат/Информация : Audio Coding 3
Расширение режима : CM (complete main)
Параметр Endianness формата : Big
Идентификатор кодека : A_AC3
Продолжительность : 2 ч. 30 м.
Вид битрейта : Постоянный
Битрейт : 384 Кбит/сек
Каналы : 6 каналов
Расположение каналов : Front: L C R, Side: L R, LFE
Частота : 48,0 КГц
Битовая глубина : 16 бит
Метод сжатия : С потерями
Размер потока : 413 Мбайт (4%)
Язык : Russian
Default : Да
Forced : Нет
Аудио #2
Идентификатор : 3
Формат : DTS
Формат/Информация : Digital Theater Systems
Режим : 16
Параметр Endianness формата : Big
Идентификатор кодека : A_DTS
Продолжительность : 2 ч. 30 м.
Вид битрейта : Постоянный
Битрейт : 1509 Кбит/сек
Каналы : 6 каналов
Расположение каналов : Front: L C R, Side: L R, LFE
Частота : 48,0 КГц
Битовая глубина : 24 бит
Метод сжатия : С потерями
Размер потока : 1,59 Гбайт (14%)
Язык : French
Default : Нет
Forced : Нет
Меню
00:00:00.000 : en:00:00:00.000
00:11:51.708 : en:00:11:51.708
00:25:33.792 : en:00:25:33.792
00:37:15.667 : en:00:37:15.667
00:47:39.167 : en:00:47:39.167
01:03:41.167 : en:01:03:41.167
01:17:14.583 : en:01:17:14.583
01:29:19.208 : en:01:29:19.208
01:42:12.000 : en:01:42:12.000
01:54:39.333 : en:01:54:39.333
02:04:57.375 : en:02:04:57.375
02:14:23.208 : en:02:14:23.208

Награды и премии

Сезар, 2015 год
Победитель (1):
*** Лучшие костюмы
Номинации (9):
*** Лучший фильм
*** Лучший актер (Гаспар Ульель)
*** Лучший актер второго плана (Жереми Ренье)
*** Лучший актер второго плана (Луи Гаррель)
*** Лучший режиссер (Бертран Бонелло)
*** Лучшая работа оператора
*** Лучший звук
*** Лучший монтаж
*** Лучшие декорации
Каннский кинофестиваль, 2014 год
Победитель (1):
*** Премия пальмовой собаки - особое упоминание
Номинации (2):
*** Золотая пальмовая ветвь
*** Квир-Пальмовая ветвь за освещение ЛГБТ-темы в кино (Бертран Бонелло)

Интересные факты

*** Пьер Берже, друг и партнер Ива Сен-Лорана, был категорически против фильма Бертрана Бонелло. Дом YSL запретил режиссеру использовать документы и коллекции модельера, поэтому все платья художникам фильма пришлось «создавать» с нуля по фото и кинохронике.
Скриншоты:
Яндекс.Метрика
Рейтинг@Mail.ru