[ Сегодня на трекере фрилич! Идет свободное скачивание без начисления Download ]

Бывает и хуже / The Middle / Сезон: 6 / Серии: 1-19 из 22 (Джули Энн Робинсон) [2014, Комедия, WEB-DL 720p] MVO (NewStudio) + Original

 

Создавать темы 11-Апр-2015 23:43

-Бывает и хуже | the middle
-Год выпуска: 2014
Страна: США
Жанр: Комедия
Продолжительность: ~00:22:00-Перевод: Профессиональный (многоголосый закадровый) [NewStudio]
Русские субтитры: нет
Режиссёр: Джули Энн Робинсон-В ролях: Патриция Хитон, Нил Флинн, Чарли МакДермотт, Иден Шер, Аттикус Шаффер, Francis Bay (III), Патриция Белчер, Питер Брейтмайер
-Описание: Семья среднего достатка, Хэки, живет в самом сердце Индианы и старается изо всех сил держаться на плаву в пучине сумасшедших будней. Этот сериал о несбыточных ожиданиях и безумных идеях, о повседневных неудачах и крохотных радостях жены и матери троих необычных детишек-Ссылка на предыдущие и альтернативные раздачи: тут-
-Качество: WEB-DL 720p
Формат: MKV
Видео кодек: H.264
Аудио кодек: AC3
Видео: MPEG4 Video (H264), 1280x718 (41:23), 23.976fps, 4 024 Kbps, 0.183 bit/pixel
Аудио: Dolby AC3, 48000Hz, 6ch, 384kbps [NewStudio]
Аудио 2: Dolby AC3, 48000Hz, 6ch, 384kbps [Оригинал]-Релиз: -

MediaInfo

General
Unique ID : 181958763709487328564176749921655259570 (0x88E3FBB0D81D59C529535A149AA701B2)
Complete name : C:\Users\Alex Vikodinov\Downloads\the.middle.s06e04.webdl.720p_NewStudio.TV.mkv
Format : Matroska
Format version : Version 4 / Version 2
File size : 748 MiB
Duration : 21mn 35s
Overall bit rate : 4 842 Kbps
Encoded date : UTC 2014-10-25 19:30:16
Writing application : mkvmerge v7.1.0 ('Good Love') 64bit
Writing library : libebml v1.3.0 + libmatroska v1.4.1
DURATION : 00:21:35.328000000
NUMBER_OF_FRAMES : 40479
NUMBER_OF_BYTES : 62175744
_STATISTICS_WRITING_APP : mkvmerge v7.1.0 ('Good Love') 64bit
_STATISTICS_WRITING_DATE_UTC : 2014-10-25 19:30:16
_STATISTICS_TAGS : BPS DURATION NUMBER_OF_FRAMES NUMBER_OF_BYTES
Video
ID : 1
Format : AVC
Format/Info : Advanced Video Codec
Format profile : [email protected]
Format settings, CABAC : No
Format settings, ReFrames : 2 frames
Codec ID : V_MPEG4/ISO/AVC
Duration : 21mn 35s
Bit rate : 3 977 Kbps
Width : 1 280 pixels
Height : 718 pixels
Display aspect ratio : 16:9
Frame rate mode : Constant
Frame rate : 23.976 fps
Color space : YUV
Chroma subsampling : 4:2:0
Bit depth : 8 bits
Scan type : Progressive
Bits/(Pixel*Frame) : 0.181
Stream size : 614 MiB (82%)
Language : English
Default : Yes
Forced : No
Color primaries : BT.709
Transfer characteristics : BT.709
Matrix coefficients : BT.709
Audio #1
ID : 2
Format : AC-3
Format/Info : Audio Coding 3
Mode extension : CM (complete main)
Format settings, Endianness : Big
Codec ID : A_AC3
Duration : 21mn 35s
Bit rate mode : Constant
Bit rate : 384 Kbps
Channel count : 6 channels
Channel positions : Front: L C R, Side: L R, LFE
Sampling rate : 48.0 KHz
Bit depth : 16 bits
Compression mode : Lossy
Stream size : 59.3 MiB (8%)
Title : NewStudio.TV
Language : Russian
Default : Yes
Forced : No
Audio #2
ID : 3
Format : AC-3
Format/Info : Audio Coding 3
Mode extension : CM (complete main)
Format settings, Endianness : Big
Codec ID : A_AC3
Duration : 21mn 35s
Bit rate mode : Constant
Bit rate : 384 Kbps
Channel count : 6 channels
Channel positions : Front: L C R, Side: L R, LFE
Sampling rate : 48.0 KHz
Bit depth : 16 bits
Compression mode : Lossy
Stream size : 59.3 MiB (8%)
Language : English
Default : No
Forced : No

Скриншоты:

Список серий

06x01 Не в скобках счастье | Unbraceable You
06x02 Одиночество в шкафу | The Lonliest Locker
06x03 Беспокойство | Major Anxiety
06x04 Стол | The Table
06x05 Хэллоуин: Часть Пятая | Halloween V
06x06 The Sinkhole
06x07 День благодарения: Часть VI | Thanksgiving VI
06x08 Экскурсия по колледжу | The College Tour
06x09 The Christmas Wall | Рождество на пределе
06х10 Pam Freakin' Staggs
06х11 A Quarry Story
06х12 Hecks on a Train
06x13 Valentine's Day VI | День святого Валентина 6
06х14 The Answer | Ответ
06х15 Steaming Pile of Guilt | Чувство вины
06x16 Flirting with Disaster | Флирт на гране фола
06x17 The Waiting Game | Мучительное ожидание
06x18 Operation Infiltration | Операция внедрения
06x19 Siblings and Sombreros

Внимание! Раздача ведется путём добавления новых серий!

Внимание! Раздача ведётся путём добавления новых серий; при каждом добавлении создаётся новый торрент. Чтобы начать докачку новой серии, пользователям необходимо сделать следующее:
(1) остановить скачивание,
(2) удалить старый торрент у себя из клиента (старые серии удалять не надо),
(3) скачать новый торрент и запустить его у себя в клиенте вместо старого, при этом указать клиенту путь в старую папку куда и должно происходить скачивание новых серий.
Ваш клиент при этом должен произвести хеширование (проверку) старой папки (если не производит сам - помогите ему сделать это), и будет докачивать только те серии которых у вас ещё нет. Старые серии при этом не удаляются, а продолжают раздаваться!
Eсли вы уже удалили старые серии, то предотвратить повторную закачку старых серий можно, отжав галочку в соответсвующих местах при запуске нового торрента.
Яндекс.Метрика
Рейтинг@Mail.ru