Берцы (2014,драма, мелодрама) HDTVRip

 

Создавать темы 11-Апр-2015 21:16

-Берцы -Информация о фильме
Название: Берцы
Год выхода: 2014
Жанр: драма, мелодрама
Режиссёр: Екатерина Шагалова
В ролях: Тимофей Каратаев, Ксения Лаврова-Глинка, Татьяна Лютаева, Алексей Барабаш, Дарья Екамасова, Мария Антонова, Георгий Губин
О фильме:
Сергей - молодой независимый тележурналист, уволен с работы за слишком смелый репортаж. Ирина - ведущая кабельного ТВ, живет в гражданском браке, не верит, что ее жизнь может измениться. Берцы — высокие армейские ботинки, которые Сергею подарил друг, сказав, что они «приводят куда надо». Сергея они приводят к Ирине. Жизнь обоих стремительно меняется к лучшему. Но вскоре берцы оказываются выброшенными на свалку.-- --Страна: Россия
Студия: Пятое июня
Продолжительность: 01:40:07
Перевод: Не требуется
Файл
Кодек: XviD
Качество: HDTVRip
Видео: XviD, 1890 Кбит/с, 720x400 (16:9), 25 кадр/с
Звук: Русский, Dolby AC3, 48000 Гц, 192 Кбит/с, 2 канала (Стерео)
Субтитры: Нет

MediaInfo

General
Complete name : bePcY.2014.O.HDTVRip.avi
Format : AVI
Format/Info : Audio Video Interleave
File size : 1.46 GiB
Duration : 1h 40mn
Overall bit rate : 2 092 Kbps
Writing application : VirtualDubMod 1.5.10.2 (build 2540/release)
Writing library : VirtualDubMod build 2540/release
Video
ID : 0
Format : MPEG-4 Visual
Format profile : Advanced [email protected]
Format settings, BVOP : 1
Format settings, QPel : No
Format settings, GMC : No warppoints
Format settings, Matrix : Default (MPEG)
Codec ID : XVID
Codec ID/Hint : XviD
Duration : 1h 40mn
Bit rate : 1 890 Kbps
Width : 720 pixels
Height : 400 pixels
Display aspect ratio : 16:9
Frame rate : 25.000 fps
Color space : YUV
Chroma subsampling : 4:2:0
Bit depth : 8 bits
Scan type : Progressive
Compression mode : Lossy
Bits/(Pixel*Frame) : 0.262
Stream size : 1.32 GiB (90%)
Writing library : XviD 1.2.1 (UTC 2008-12-04)
Audio
ID : 1
Format : AC-3
Format/Info : Audio Coding 3
Mode extension : CM (complete main)
Codec ID : 2000
Duration : 1h 40mn
Bit rate mode : Constant
Bit rate : 192 Kbps
Channel(s) : 2 channels
Channel positions : Front: L R
Sampling rate : 48.0 KHz
Bit depth : 16 bits
Compression mode : Lossy
Stream size : 138 MiB (9%)
Alignment : Aligned on interleaves
Interleave, duration : 40 ms (1.00 video frame)
Interleave, preload duration : 512 ms

Скриншоты

Яндекс.Метрика
Рейтинг@Mail.ru