[ Сегодня на трекере фрилич! Идет свободное скачивание без начисления Download ]

Город 44 / Miasto 44 (2014) BDRip [H.264/720p]

 

Создавать темы 11-Апр-2015 14:09

Город 44 (2014) Производство: Польша / Akson Studio, Stern Pictures
Жанр: Драма, Военный
Режиссер: Ян Комаса
Актеры: Юзеф Павловский, Зофиа Вихлач, Анна Прухняк, Энтони Круликовски, Мауриси Попьел, Михал Миколайчак, Каролина Станец, Жасмин Полак, Томаш Шухардт
Действие фильма начинается перед самым началом варшавского восстания 1 августа 1944 года. Фильм рассказывает о группе близких друзей, которые приезжают в столицу в разгар повстанческой борьбы. Стефан работает на заводе Ведля, содержит мать и младшего брата, ежедневно испытывая унижения немцев. Мечтает о мгновении, когда сможет им за все отплатить и исполнить долг перед Родиной. Как только представляется случай — он вступает в ряды Армии Крайовой. Во время конспиративных встреч Стефан знакомится с Бедронкой, тонкой и впечатлительной девушкой. Молодые люди познают вкус первой юношеской любви. Но когда смерть грозит на каждом шагу, такая любовь не может быть счастливой…



Качество видео: BDRip 720p
Продолжительность: 02:06:46
Перевод: Любительский двухголосый (RAIM & NASTR)
Язык субтитров: русский (GlobalTrolle), английский , польский
Вид субтитров: Вшитые (отключаемые)
Чаптеры : (Главы) Есть
Видео: 1280x536, MPEG-4 AVC, 7000 Кбит/с, 24.000 кадр/с
Аудио 1: AC3, 6 ch, 640 Кбит/с / Любительский двухголосый (RAIM & NASTR) / русский
Аудио 2: AC3, 6 ch, 640 Кбит/с / Польский

Доп.Информация:

General
Format : Matroska
Format version : Version 2
File size : 7.33 GiB
Duration : 2h 6mn
Overall bit rate : 8 282 Kbps
Encoded date : UTC 2015-02-13 23:58:41
Writing application : mkvmerge v5.5.0 ('Healer') built on Apr 6 2012 21:43:24
Writing library : libebml v1.2.3 + libmatroska v1.3.0
Video
ID : 1
Format : AVC
Format/Info : Advanced Video Codec
Format profile : [email protected]
Format settings, CABAC : Yes
Format settings, ReFrames : 12 frames
Codec ID : V_MPEG4/ISO/AVC
Duration : 2h 6mn
Bit rate : 7 000 Kbps
Width : 1 280 pixels
Height : 536 pixels
Display aspect ratio : 2.40:1
Frame rate mode : Constant
Frame rate : 24.000 fps
Color space : YUV
Chroma subsampling : 4:2:0
Bit depth : 8 bits
Scan type : Progressive
Bits/(Pixel*Frame) : 0.425
Stream size : 6.05 GiB (83%)
Title : Miasto 44 (2014)
Writing library : x264 core 142 r2431+42 c69a006 tMod [[email protected] X86]
Encoding settings : cabac=1 / ref=12 / deblock=1:-3:-3 / analyse=0x3:0x133 / me=umh / subme=10 / psy=1 / fade_compensate=0.00 / psy_rd=1.00:0.00 / mixed_ref=1 / me_range=32 / chroma_me=1 / trellis=2 / 8x8dct=1 / cqm=0 / deadzone=21,11 / fast_pskip=0 / chroma_qp_offset=-2 / threads=12 / lookahead_threads=2 / sliced_threads=0 / nr=0 / decimate=0 / interlaced=0 / bluray_compat=0 / constrained_intra=0 / fgo=0 / bframes=9 / b_pyramid=2 / b_adapt=1 / b_bias=0 / direct=3 / weightb=1 / open_gop=0 / weightp=2 / keyint=250 / keyint_min=24 / scenecut=40 / intra_refresh=0 / rc=2pass / mbtree=0 / bitrate=7000 / ratetol=1.0 / qcomp=0.60 / qpmin=0:0:0 / qpmax=69:69:69 / qpstep=4 / cplxblur=20.0 / qblur=0.5 / ip_ratio=1.40 / pb_ratio=1.30 / aq=1:0.80 / aq-sensitivity=10.00 / aq-factor=1.00:1.00:1.00 / aq2=0 / aq3=0
Language : Polish
Default : Yes
Forced : No
Audio #1
ID : 2
Format : AC-3
Format/Info : Audio Coding 3
Mode extension : CM (complete main)
Format settings, Endianness : Big
Codec ID : A_AC3
Duration : 2h 6mn
Bit rate mode : Constant
Bit rate : 640 Kbps
Channel count : 6 channels
Channel positions : Front: L C R, Side: L R, LFE
Sampling rate : 48.0 KHz
Bit depth : 16 bits
Compression mode : Lossy
Stream size : 580 MiB (8%)
Title : Russian
Language : Russian
Default : Yes
Forced : No
Audio #2
ID : 3
Format : AC-3
Format/Info : Audio Coding 3
Mode extension : CM (complete main)
Format settings, Endianness : Big
Codec ID : A_AC3
Duration : 2h 6mn
Bit rate mode : Constant
Bit rate : 640 Kbps
Channel count : 6 channels
Channel positions : Front: L C R, Side: L R, LFE
Sampling rate : 48.0 KHz
Bit depth : 16 bits
Compression mode : Lossy
Stream size : 580 MiB (8%)
Title : Polish
Language : Polish
Default : No
Forced : No
Text #1
ID : 4
Format : UTF-8
Codec ID : S_TEXT/UTF8
Codec ID/Info : UTF-8 Plain Text
Title : Russian
Language : Russian
Default : No
Forced : No
Text #2
ID : 5
Format : UTF-8
Codec ID : S_TEXT/UTF8
Codec ID/Info : UTF-8 Plain Text
Title : English
Language : English
Default : No
Forced : No
Text #3
ID : 6
Format : UTF-8
Codec ID : S_TEXT/UTF8
Codec ID/Info : UTF-8 Plain Text
Title : Polish
Language : Polish
Default : No
Forced : No
Menu
00:00:00.000 : en:00:00:00.000
00:10:31.167 : en:00:10:31.167
00:17:36.833 : en:00:17:36.833
00:25:37.958 : en:00:25:37.958
00:31:37.125 : en:00:31:37.125
00:38:52.292 : en:00:38:52.292
00:47:22.833 : en:00:47:22.833
00:54:30.875 : en:00:54:30.875
01:01:32.083 : en:01:01:32.083
01:08:56.833 : en:01:08:56.833
01:19:35.583 : en:01:19:35.583
01:27:00.667 : en:01:27:00.667
01:33:06.083 : en:01:33:06.083
01:40:17.875 : en:01:40:17.875
01:49:11.292 : en:01:49:11.292
01:59:40.125 : en:01:59:40.125

Скриншоты:

Яндекс.Метрика
Рейтинг@Mail.ru