Белый тигр (Карен Шахназаров) [2012 г., военный, BDRip-AVC]

 

Создавать темы 28-Ноя-2013 23:14

- Год выпуска: 2012
Страна: Россия
Жанр: военный

Продолжительность: 01:48:44-Перевод: Не требуется
Режиссер: Карен Шахназаров
В ролях: Алексей Вертков (Найденов), Виталий Кищенко (Федотов), Валерий Гришко (Жуков), Дмитрий Быковский-Ромашов (Смирнов), Герасим Архипов (Шарипов), Александр Вахов (Крюк), Виталий Дорджиев (Бердыев), Владимир Ильин (начальник госпиталя), Карл Кранцковски (Гитлер), Кристиан Редль (Кейтель), Клаус Грюнберг (Штумпф), Вилмар Бири (Фридебург)-Описание: Вторая Мировая война подходит к концу. Тяжелые затяжные бои изматывают обе стороны. Но чем увереннее наступают советские войска, тем чаще на полях сражений появляется огромным неуязвимый немецкий танк «Белый Тигр».
Внезапно возникает он в дыму сражений, безжалостно расстреливает своих противников и неожиданно исчезает. Советское командование решает для борьбы с «Белым Тигром» создать особый танк - специальную модель Т-34-85.
--Качество: BDRip-AVC
Контейнер: MKV
Видео кодек: AVC
Аудио кодек: AC3
Видео: AVC, 1024x576 (16:9), 2200 kbps, 23,976 fps, 0,156 bpp
Аудио: / AC3 / 5.1 / 48 kHz / 448 kbps / 16 bit -Рип: and77200
Группа: -

Media Info

General
Unique ID : 252781207004931767779074169522060716438 (0xBE2BE3BC7E09265CA048101DD142E996)
Complete name : G:\Фильмы\Белый тигр.2012.BDRip-AVC.mkv
Format : Matroska
Format version : Version 4 / Version 2
File size : 2.01 GiB
Duration : 1h 48mn
Overall bit rate : 2 652 Kbps
Encoded date : UTC 2013-11-28 18:33:40
Writing application : mkvmerge v6.4.1 ('Omega Point') built on Sep 16 2013 22:05:10
Writing library : libebml v1.3.0 + libmatroska v1.4.1
Video
ID : 1
Format : AVC
Format/Info : Advanced Video Codec
Format profile : [url=mailto:[email protected]][email protected][/url]
Format settings, CABAC : Yes
Format settings, ReFrames : 10 frames
Codec ID : V_MPEG4/ISO/AVC
Duration : 1h 48mn
Bit rate : 2 200 Kbps
Width : 1 024 pixels
Height : 576 pixels
Display aspect ratio : 16:9
Frame rate mode : Constant
Frame rate : 23.976 fps
Color space : YUV
Chroma subsampling : 4:2:0
Bit depth : 8 bits
Scan type : Progressive
Bits/(Pixel*Frame) : 0.156
Stream size : 1.63 GiB (81%)
Writing library : x264 core 124 r2197M 69a0443
Encoding settings : cabac=1 / ref=11 / deblock=1:0:0 / analyse=0x3:0x133 / me=umh / subme=9 / psy=1 / psy_rd=1.00:0.20 / mixed_ref=1 / me_range=11 / chroma_me=1 / trellis=0 / 8x8dct=1 / cqm=0 / deadzone=21,11 / fast_pskip=1 / chroma_qp_offset=-2 / threads=2 / sliced_threads=0 / nr=0 / decimate=1 / interlaced=0 / bluray_compat=0 / constrained_intra=0 / bframes=11 / b_pyramid=1 / b_adapt=0 / b_bias=0 / direct=3 / weightb=1 / open_gop=0 / weightp=0 / keyint=230 / keyint_min=23 / scenecut=40 / intra_refresh=0 / rc_lookahead=40 / rc=2pass / mbtree=1 / bitrate=2200 / ratetol=1.0 / qcomp=0.60 / qpmin=10 / qpmax=51 / qpstep=4 / cplxblur=20.0 / qblur=0.5 / ip_ratio=1.40 / aq=1:1.00
Language : Russian
Default : Yes
Forced : No
Audio
ID : 2
Format : AC-3
Format/Info : Audio Coding 3
Mode extension : CM (complete main)
Format settings, Endianness : Big
Codec ID : A_AC3
Duration : 1h 48mn
Bit rate mode : Constant
Bit rate : 448 Kbps
Channel count : 6 channels
Channel positions : Front: L C R, Side: L R, LFE
Sampling rate : 48.0 KHz
Bit depth : 16 bits
Compression mode : Lossy
Stream size : 348 MiB (17%)
Language : Russian
Default : Yes
Forced : No
Menu
00:00:00.000 : :Chapter 01
00:06:31.057 : :Chapter 02
00:14:22.653 : :Chapter 03
00:23:08.762 : :Chapter 04
00:33:38.307 : :Chapter 05
00:46:51.266 : :Chapter 06
00:56:08.990 : :Chapter 07
01:05:15.453 : :Chapter 08
01:17:30.896 : :Chapter 09
01:22:59.683 : :Chapter 10
01:32:23.746 : :Chapter 11
01:41:08.645 : :Chapter 12
01:48:42.224 : :Chapter 13

Скриншоты

Яндекс.Метрика
Рейтинг@Mail.ru