Цирюльник / The Barber (2014) BDRip [720p]

 

Создавать темы 11-Апр-2015 00:29

--Цирюльник / The Barber (2014) BDRip [720p]-- Производство: США / Chapman Entertainment
Жанр: Триллер, Драма, Криминал
Режиссер: Бэйзел Оуис
Продюсер: Трэвис Нокс, Боб Бассетт, Кристофер Кронин
Актеры: Скотт Гленн, Стивен Тоболовски, Лидия Хёрст, Джессика Лу, Кристен Хагер, Крис Кой, Оливия Тейлор Дадли, Тим Де Зарн, Максимино Арсиньега, Вэлори Хаббард
Описание фильма:
В тихом маленьком городке живет обычный, ничем не примечательный старик. У него своя парикмахерская, он добропорядочный гражданин, его уважают и ценят окружающие. Но однажды его тихой и размеренной жизни приходит конец. Молодой человек, представившийся Джоном Лару, убежден, что парикмахер — никто иной, как серийный убийца, убивший 17 молодых женщин, закапывая их заживо.- -Рейтинг MPAA: R (лицам до 17 лет обязательно присутствие взрослого)
Присутствует ненормативная лексика
Продолжительность: 01:30:12
Качество видео: BDRip [720p] [profile-LQ]
Перевод: Одноголосый закадровый, любительский (П. Морозов aka PashaUp)
Субтитры: Вшитые отключаемые
Язык субтитров: Английский (Full)
Видеокодек: MPEG-4 AVC/H.264
Битрейт видео: 5421 Kbps
Размер кадра: 1280x536, 23,976 fps
Аудио #1: AC3, 48,0 KHz, 6 ch, 384 Kbps, CBR (Русский, Одноголосый закадровый)
Аудио #2: AC3, 48,0 KHz, 6 ch, 640 Kbps, CBR (Английский)-

MediaInfo:

Код:
Формат : Matroska
Версия формата : Version 2
Размер файла : 4,06 Гбайт
Продолжительность : 1 ч. 30 м.
Общий поток : 6444 Кбит/сек
Название фильма : The Barber (2014)
Дата кодирования : UTC 2015-04-10 18:56:44
Программа кодирования : mkvmerge v7.8.0 ('River Man') 64bit built on Mar 27 2015 16:31:37
Библиотека кодирования : libebml v1.3.1 + libmatroska v1.4.2
Видео
Идентификатор : 1
Формат : AVC
Формат/Информация : Advanced Video Codec
Профиль формата : [email protected]
Параметр CABAC формата : Да
Параметр ReFrames формата : 5 кадров
Идентификатор кодека : V_MPEG4/ISO/AVC
Продолжительность : 1 ч. 30 м.
Битрейт : 5421 Кбит/сек
Ширина : 1280 пикселей
Высота : 536 пикселей
Соотношение сторон : 2,40:1
Режим частоты кадров : Постоянный
Частота кадров : 23,976 кадра/сек
Цветовое пространство : YUV
Субдискретизация насыщенности : 4:2:0
Битовая глубина : 8 бит
Тип развёртки : Прогрессивная
Бит/(Пиксели*Кадры) : 0.330
Размер потока : 3,34 Гбайт (82%)
Библиотека кодирования : x264 core 144 r2525 40bb568
Настройки программы : cabac=1 / ref=5 / deblock=1:0:0 / analyse=0x3:0x133 / me=umh / subme=7 / psy=1 / psy_rd=1.00:0.00 / mixed_ref=1 / me_range=16 / chroma_me=1 / trellis=1 / 8x8dct=1 / cqm=0 / deadzone=21,11 / fast_pskip=0 / chroma_qp_offset=-2 / threads=60 / lookahead_threads=4 / sliced_threads=0 / nr=0 / decimate=1 / interlaced=0 / bluray_compat=0 / constrained_intra=0 / bframes=3 / b_pyramid=2 / b_adapt=1 / b_bias=0 / direct=1 / weightb=1 / open_gop=0 / weightp=2 / keyint=250 / keyint_min=23 / scenecut=40 / intra_refresh=0 / rc_lookahead=40 / rc=2pass / mbtree=1 / bitrate=5421 / ratetol=1.0 / qcomp=0.60 / qpmin=0 / qpmax=69 / qpstep=4 / cplxblur=20.0 / qblur=0.5 / ip_ratio=1.40 / aq=1:1.00
Язык : English
Default : Да
Forced : Нет
Аудио #1
Идентификатор : 2
Формат : AC-3
Формат/Информация : Audio Coding 3
Расширение режима : CM (complete main)
Параметр Endianness формата : Big
Идентификатор кодека : A_AC3
Продолжительность : 1 ч. 30 м.
Вид битрейта : Постоянный
Битрейт : 384 Кбит/сек
Каналы : 6 каналов
Расположение каналов : Front: L C R, Side: L R, LFE
Частота : 48,0 КГц
Битовая глубина : 16 бит
Метод сжатия : С потерями
Размер потока : 248 Мбайт (6%)
Заголовок : AC3 / 5.1 / 384 kbps / VO, PashaUp
Язык : Russian
Default : Да
Forced : Нет
Аудио #2
Идентификатор : 3
Формат : AC-3
Формат/Информация : Audio Coding 3
Расширение режима : CM (complete main)
Параметр Endianness формата : Big
Идентификатор кодека : A_AC3
Продолжительность : 1 ч. 30 м.
Вид битрейта : Постоянный
Битрейт : 640 Кбит/сек
Каналы : 6 каналов
Расположение каналов : Front: L C R, Side: L R, LFE
Частота : 48,0 КГц
Битовая глубина : 16 бит
Метод сжатия : С потерями
Размер потока : 413 Мбайт (10%)
Заголовок : AC3 / 5.1 / 640 kbps / Original
Язык : English
Default : Нет
Forced : Нет
Текст
Идентификатор : 4
Формат : UTF-8
Идентификатор кодека : S_TEXT/UTF8
Идентификатор кодека/Информация : UTF-8 Plain Text
Заголовок : Full
Язык : English
Default : Нет
Forced : Нет
Меню
00:00:00.000 : en:00:00:00.000
00:08:31.261 : en:00:08:31.261
00:16:21.689 : en:00:16:21.689
00:24:33.055 : en:00:24:33.055
00:32:10.804 : en:00:32:10.804
00:39:26.573 : en:00:39:26.573
00:48:14.058 : en:00:48:14.058
00:56:10.409 : en:00:56:10.409
01:02:09.100 : en:01:02:09.100
01:09:50.645 : en:01:09:50.645
01:15:35.656 : en:01:15:35.656
01:25:28.040 : en:01:25:28.040
Скриншоты:

Дополнительные скриншоты:



Последний раз редактировалось: KottoSOFT (2015-04-11 17:00), всего редактировалось 3 раз(а)

Создавать темы 11-Апр-2015 05:52 (спустя 5 часов)

Привет KottoSOFT, на постере раздачи ссылка стороннего сайта, исправьте.
Яндекс.Метрика
Рейтинг@Mail.ru