Игра [01-20 из 20] (2011,криминал, детектив) WEBRip-AVC

 

Создавать темы 10-Апр-2015 17:53

-Игра [01-20 из 20] (2011)- -Страна: Россия / DixiMedia
Жанр: криминал, детектив
Год выпуска: 2011
Продолжительность: ~ 00:49:00 / серия
Перевод: Не требуется
Cубтитры: нет
Оригинальная аудиодорожка: русский
Режиссер: Георгий Гаврилов, Сергей Лесогоров, Геннадий Иванов, Тимур Алпатов
В ролях: Виталий Емашов, Павел Баршак, Дарья Повереннова, Владимир Фекленко, Наталья Левина, Спартак Сумченко, Мария Горбань, Вероника Амирханова, Игорь Теплов, Андрей Лебедев...
Описание: Сериал расскажет о противостоянии двух невероятно сильных личностей: следователя ФСБ Белова и отчаянного бандита Смолина, которые, однажды столкнувшись, станут личными врагами на всю жизнь. Это будет захватывающий поединок между равновеликими фигурами, одного из которых ведут правильные и положительные чувства и эмоции, второго — самые низменные пороки и страсти.-- ---Качество: WEBRip-AVC
Формат: MKV
Видео: 768x430 (16:9), 25.000 fps, MPEG4 AVC ~ 1 566 kbps avg, 0.190 bit/pixel
Аудио: 48 kHz, Dolby AC3, 2 ch, 192 kbps
Дополнительно: Сериал скачан с онлайн-кинотеатра, большое спасибо за помощь Double.O.Seven. Я переделал звук из ААС в АС3, поскольку не все телевизоры и плееры у нас воспроизводят звук ААС.

Список серий

01. Младший
02. La Legion Etrangere
03. Спящая ячейка
04. Невидимая крепость
05. Черный ферзь
06. Щепка
07. Пешка
08. Рокировка
09. Убийца
10. Размен
11. Расплата
12. Это бизнес
13. Кровь невиновных
14. Пат
15. Эндшпиль
16. Мой единственный друг
17. Шах
18. Мат
19. Эпизод #1.19
20. Эпизод #1.20

MediaInfo

General
Format : Matroska
Format version : Version 4 / Version 2
File size : 643 MiB
Duration : 50mn 7s
Overall bit rate mode : Variable
Overall bit rate : 1 794 Kbps
Encoded date : UTC 2015-04-08 17:40:04
Writing application : mkvmerge v7.8.0 ('River Man') 64bit built on Mar 27 2015 16:31:37
Writing library : libebml v1.3.1 + libmatroska v1.4.2
DURATION : 00:50:07.072000000
NUMBER_OF_FRAMES : 93971
NUMBER_OF_BYTES : 72169728
_STATISTICS_WRITING_APP : mkvmerge v7.8.0 ('River Man') 64bit built on Mar 27 2015 16:31:37
_STATISTICS_WRITING_DATE_UTC : 2015-04-08 17:40:04
_STATISTICS_TAGS : BPS DURATION NUMBER_OF_FRAMES NUMBER_OF_BYTES
Video
ID : 1
Format : AVC
Format/Info : Advanced Video Codec
Format profile : [email protected]
Format settings, CABAC : Yes
Format settings, ReFrames : 2 frames
Codec ID : V_MPEG4/ISO/AVC
Duration : 50mn 7s
Bit rate mode : Variable
Bit rate : 1 566 Kbps
Maximum bit rate : 2 000 Kbps
Width : 768 pixels
Height : 430 pixels
Display aspect ratio : 16:9
Frame rate : 25.000 fps
Color space : YUV
Chroma subsampling : 4:2:0
Bit depth : 8 bits
Scan type : Progressive
Bits/(Pixel*Frame) : 0.190
Stream size : 561 MiB (87%)
Language : Russian
Default : Yes
Forced : No
Color primaries : BT.709-5, BT.1361, IEC 61966-2-4, SMPTE RP177
Transfer characteristics : BT.709-5, BT.1361
Matrix coefficients : BT.709-5, BT.1361, IEC 61966-2-4 709, SMPTE RP177
Audio
ID : 2
Format : AC-3
Format/Info : Audio Coding 3
Format profile : Dolby Digital
Mode extension : CM (complete main)
Format settings, Endianness : Big
Codec ID : A_AC3
Duration : 50mn 7s
Bit rate mode : Constant
Bit rate : 192 Kbps
Channel(s) : 2 channels
Channel positions : Front: L R
Sampling rate : 48.0 KHz
Bit depth : 16 bits
Compression mode : Lossy
Delay relative to video : -40ms
Stream size : 68.8 MiB (11%)
Language : Russian
Default : Yes
Forced : No

Скриншоты:

Торрент файл заменен 10 апреля 2015 года. Исправлен звук в сериях 5 - 7.
Яндекс.Метрика
Рейтинг@Mail.ru