[ Сегодня на трекере фрилич! Идет свободное скачивание без начисления Download ]

Операция «Ы» и другие приключения Шурика (1965) BDRip [H.264/720p]

 

Создавать темы 07-Апр-2015 07:28

-Операция «Ы» и другие приключения Шурика (1965) BDRip [H.264/720p]
« Запомни, студент, кто не работает, тот ест! »
- Производство: СССР | Мосфильм
Жанр: Мелодрама, Комедия, Криминал
Режиссер: Леонид Гайдай
Актеры: Александр Демьяненко, Наталья Селезнёва, Алексей Смирнов, Юрий Никулин, Евгений Моргунов, Георгий Вицин, Михаил Пуговкин, Виктор Павлов, Владимир Басов, Рина Зеленая, Виктор Уральский, Георгий Ахундов, Валентина Березуцкая
Описание фильма: Фильм состоит из трех новелл, объединенных фигурой главного героя Шурика, попадающего в самые невероятные ситуации. В «Напарнике» Шурик сражается с хулиганом Верзилой; в «Наваждении» весьма оригинальным способом готовится к экзамену; в «Операции «Ы» предотвращает «ограбление века», на которое идет знаменитая тройка - Балбес, Трус и Бывалый.
Продолжительность: 01:34:34
Качество видео: BDRip [H.264/720p]
Вид субтитров: Вшитые отключаемые
Язык субтитров: Английский
Видео: MPEG-4 AVC/H.264, 7000 Kbps, 948 x 720
Аудио: DTS 5.1, 1509 Kbps, 48.0 KHz

MI

Общее
Полное имя : Операция «Ы» и другие приключения Шурика.mkv
Формат : Matroska
Версия формата : Version 1
Размер файла : 5,62 Гбайт
Продолжительность : 1 ч. 34 м.
Общий поток : 8512 Кбит/сек
Дата кодирования : UTC 2015-04-07 04:06:06
Программа кодирования : mkvmerge v2.4.1 ('Use Me') built on Dec 5 2008 18:30:05
Библиотека кодирования : libebml v0.7.7 + libmatroska v0.8.1
Видео
Идентификатор : 1
Формат : AVC
Формат/Информация : Advanced Video Codec
Профиль формата : [url=mailto:[email protected]][email protected][/url]
Параметр CABAC формата : Да
Параметр ReFrames формата : 10 кадров
Идентификатор кодека : V_MPEG4/ISO/AVC
Продолжительность : 1 ч. 34 м.
Битрейт : 7000 Кбит/сек
Ширина : 948 пикселей
Высота : 720 пикселей
Соотношение сторон : 4:3
Режим частоты кадров : Постоянный
Частота кадров : 23,976 кадра/сек
Цветовое пространство : YUV
Субдискретизация насыщенности : 4:2:0
Битовая глубина : 8 бит
Тип развёртки : Прогрессивная
Бит/(Пиксели*Кадры) : 0.428
Размер потока : 4,51 Гбайт (80%)
Заголовок : Операция «Ы» и другие приключения Шурика (1965)
Библиотека кодирования : x264 core 138 r2358 9e941d1
Настройки программы : cabac=1 / ref=10 / deblock=1:-3:-3 / analyse=0x3:0x133 / me=umh / subme=10 / psy=1 / psy_rd=1.00:0.10 / mixed_ref=1 / me_range=48 / chroma_me=1 / trellis=2 / 8x8dct=1 / cqm=0 / deadzone=21,11 / fast_pskip=0 / chroma_qp_offset=-3 / threads=6 / lookahead_threads=1 / sliced_threads=0 / nr=0 / decimate=1 / interlaced=0 / bluray_compat=0 / constrained_intra=0 / bframes=5 / b_pyramid=2 / b_adapt=2 / b_bias=0 / direct=3 / weightb=1 / open_gop=0 / weightp=2 / keyint=240 / keyint_min=22 / scenecut=40 / intra_refresh=0 / rc_lookahead=40 / rc=2pass / mbtree=1 / bitrate=7000 / ratetol=1.0 / qcomp=0.60 / qpmin=10 / qpmax=51 / qpstep=4 / cplxblur=20.0 / qblur=0.5 / ip_ratio=1.40 / aq=1:1.00
Язык : Russian
Аудио
Идентификатор : 2
Формат : DTS
Формат/Информация : Digital Theater Systems
Режим : 16
Параметр Endianness формата : Big
Идентификатор кодека : A_DTS
Продолжительность : 1 ч. 34 м.
Вид битрейта : Постоянный
Битрейт : 1509 Кбит/сек
Каналы : 6 каналов
Расположение каналов : Front: L C R, Side: L R, LFE
Частота : 48,0 КГц
Битовая глубина : 24 бит
Метод сжатия : С потерями
Размер потока : 1021 Мбайт (18%)
Заголовок : DTS (Оригинал)
Язык : Russian
Текст
Идентификатор : 3
Формат : UTF-8
Идентификатор кодека : S_TEXT/UTF8
Идентификатор кодека/Информация : UTF-8 Plain Text
Заголовок : Английские
Язык : English

Дополнительно

» Во время съёмок в Одессе, часть актёров — Алексей Смирнов, Георгий Вицин и Евгений Моргунов параллельно снимались у Владимира Архангельского в новелле «Скелет Аполлона» (из киноальманаха «Бывает и так» (1965)). Съёмочные группы обоих фильмов проживали в одной гостинице.
» Фильм снимался в Ленинграде, в павильонах Мосфильма, в районе Свиблово и в районе МГУ (Москва), а также в Одессе. Кроме того, в кадрах новелл можно довольно детально разглядеть архитектуру Москвы 1960-х годов.
» По сюжету новелл действие происходит в городе Зареченск.
» Гонорары за съемки:
- Леонид Гайдай — 2375 рублей, плюс 1500 за соавторство в написании сценария;
- Александр Демьяненко — 3376 рублей;
- Алексей Смирнов — 875 рублей;
- Михаил Пуговкин — 875 рублей;
- Наталья Селезнева — 450 рублей;
- Георгий Вицин — 1620 рублей;
- Юрий Никулин — 1620 рублей;
- Евгений Моргунов — 810 рублей.
» Автобус, в котором Шурик подрался с Верзилой, — ЗиЛ-158. Сейчас такой автобус имеется в коллекции Музея пассажирского транспорта Москвы.
» В новелле «Наваждение» Шурик и девушка едут на трамвае Татра-Т3 бортовой номер 530. Этот вагон относился к одной из первых партий этих трамваев, в отличие от более поздних «Татр» он имел всего две двери. Также в кадр попал трамвай МТВ-82А в типичной раскраске (с ниспадающей красной чертой).
» Фильм был лидером проката в 1965 году (69,6 миллионов зрителей).
» В 1965 на фестивале короткометражных фильмов в Кракове новелле «Наваждение» был присужден приз «Серебряный дракон Вавеля».
» Занимает по посещаемости 7-е место среди отечественных фильмов за всю историю советского кинопроката.
» На роль прораба пробовался Владимир Высоцкий.
Скриншоты:
Яндекс.Метрика
Рейтинг@Mail.ru