[ Сегодня на трекере фрилич! Идет свободное скачивание без начисления Download ]

Феи: Легенда о чудовище / Tinkerbell And The Legend Of The Neverbeast (Стив Лотер) [2014 г., Мультфильм, фэнтези, приключения, семейный, BDRip 1080p] [iTunes]

 

Создавать темы 05-Апр-2015 11:43

Феи: Легенда о чудовище / Tinkerbell And The Legend Of The Neverbeast-Год выпуска: 2014
Страна: США, DisneyToon Studios, Prana Studios
Жанр: Мультфильм, фэнтези, приключения, семейный
Продолжительность: 01:16:14
Перевод: Дублированный [iTunes]
Субтитры: Английские, испанские, французские-В ролях: Джиннифер Гудвин, Розарио Доусон, Рэйвен, Мэй Уитман, Люси Лью, Томас Леннон, Памела Адлон, Меган Хилти, Мелани Браун
Режиссёр: Стив Лотер-Описание: Анимационная сказка расскажет удивительную историю о веселой и талантливой фее Фауне, которая убеждена в том, что о книге нельзя судить по ее обложке, впрочем, как и о животном по его клыкам, поэтому она дружит с таинственным существом громадных размеров из Нетландии по прозвищу Чудовище. В это время группа волшебных фей разведки не настолько уверены в этом страшном звере и намереваются захватить его прежде, чем он уничтожит их дома. Они хотят отправиться на поиски Чудовища. Фауна, чтобы спасти своего нового друга, остается лишь доказать всем, что он — существо доброе и не собирается вредить другим.-Качество: BDRip 1080p
Формат: MKV
Видео кодек: AVC
Аудио кодек: AC3, DTS
Видео: MPEG-4 AVC, 15700 Кбит/с, 1920x1080, 23.976 fps
Аудио: Русский AC3, 6 ch, 384 Кбит/с, 48.0 KHz
Аудио: Английский DTS, 6 ch, 1510 Кбит/с, 48.0 KHz Рейтинг:

MediaInfo :

Complete name : D:\Кино\Tinker.Bell.and.the.Legend.of.the.NeverBeast.2014.1080p.BluRay.mkv
Format : Matroska
Format version : Version 4 / Version 2
File size : 9.55 GiB
Duration : 1h 16mn
Overall bit rate : 17.9 Mbps
Encoded date : UTC 2015-03-09 15:36:38
Writing application : mkvmerge v7.3.0 ('Nouages') 64bit built on Oct 22 2014 18:53:34
Writing library : libebml v1.3.0 + libmatroska v1.4.1
DURATION : 01:16:14.560000000
NUMBER_OF_FRAMES : 142955
NUMBER_OF_BYTES : 219578880
_STATISTICS_WRITING_APP : mkvmerge v7.3.0 ('Nouages') 64bit built on Oct 22 2014 18:53:34
_STATISTICS_WRITING_DATE_UTC : 2015-03-09 15:36:38
_STATISTICS_TAGS : BPS DURATION NUMBER_OF_FRAMES NUMBER_OF_BYTES
Video
ID : 1
Format : AVC
Format/Info : Advanced Video Codec
Format profile : [email protected]
Format settings, CABAC : Yes
Format settings, ReFrames : 4 frames
Codec ID : V_MPEG4/ISO/AVC
Duration : 1h 16mn
Bit rate : 15.7 Mbps
Width : 1 920 pixels
Height : 1 080 pixels
Display aspect ratio : 16:9
Frame rate mode : Constant
Frame rate : 23.976 fps
Color space : YUV
Chroma subsampling : 4:2:0
Bit depth : 8 bits
Scan type : Progressive
Bits/(Pixel*Frame) : 0.315
Stream size : 8.35 GiB (87%)
Title : Tinker Bell and the Legend of the NeverBeast 2014
Writing library : x264 core 144 r2525kMod 40bb568
Encoding settings : cabac=1 / ref=4 / deblock=1:-3:-3 / analyse=0x3:0x133 / me=umh / subme=10 / psy=1 / fade_compensate=0.00 / psy_rd=1.05:0.00 / mixed_ref=1 / me_range=16 / chroma_me=1 / trellis=2 / 8x8dct=1 / cqm=0 / deadzone=21,11 / fast_pskip=0 / chroma_qp_offset=-2 / threads=6 / lookahead_threads=1 / sliced_threads=0 / nr=0 / decimate=0 / interlaced=0 / bluray_compat=0 / constrained_intra=0 / fgo=0 / bframes=8 / b_pyramid=2 / b_adapt=2 / b_bias=0 / direct=3 / weightb=1 / open_gop=0 / weightp=2 / keyint=250 / keyint_min=23 / scenecut=40 / intra_refresh=0 / rc_lookahead=80 / rc=crf / mbtree=0 / crf=17.0000 / qcomp=0.70 / qpmin=0 / qpmax=69 / qpstep=4 / vbv_maxrate=25000 / vbv_bufsize=20000 / crf_max=0.0 / nal_hrd=none / filler=0 / ip_ratio=1.30 / pb_ratio=1.20 / aq=1:1.00 / zones=1364,1470,crf=15/2425,2535,crf=15
Language : English
Default : Yes
Forced : No
DURATION : 01:16:14.654000000
NUMBER_OF_FRAMES : 109682
NUMBER_OF_BYTES : 9166305009
_STATISTICS_WRITING_APP : mkvmerge v7.3.0 ('Nouages') 64bit built on Oct 22 2014 18:53:34
_STATISTICS_WRITING_DATE_UTC : 2015-03-09 15:36:38
_STATISTICS_TAGS : BPS DURATION NUMBER_OF_FRAMES NUMBER_OF_BYTES
Audio #1
ID : 2
Format : AC-3
Format/Info : Audio Coding 3
Mode extension : CM (complete main)
Format settings, Endianness : Big
Codec ID : A_AC3
Duration : 1h 16mn
Bit rate mode : Constant
Bit rate : 384 Kbps
Channel(s) : 6 channels
Channel positions : Front: L C R, Side: L R, LFE
Sampling rate : 48.0 KHz
Bit depth : 16 bits
Compression mode : Lossy
Stream size : 209 MiB (2%)
Language : Russian
Default : Yes
Forced : No
Audio #2
ID : 3
Format : DTS
Format/Info : Digital Theater Systems
Mode : 16
Format settings, Endianness : Big
Codec ID : A_DTS
Duration : 1h 16mn
Bit rate mode : Constant
Bit rate : 1 509 Kbps
Channel(s) : 6 channels
Channel positions : Front: L C R, Side: L R, LFE
Sampling rate : 48.0 KHz
Bit depth : 24 bits
Compression mode : Lossy
Stream size : 823 MiB (8%)
Language : English
Default : No
Forced : No
Text #1
ID : 4
Format : UTF-8
Codec ID : S_TEXT/UTF8
Codec ID/Info : UTF-8 Plain Text
Title : English
Language : English
Default : No
Forced : No
Text #2
ID : 5
Format : UTF-8
Codec ID : S_TEXT/UTF8
Codec ID/Info : UTF-8 Plain Text
Title : English-SDH
Language : English
Default : No
Forced : No
Text #3
ID : 6
Format : UTF-8
Codec ID : S_TEXT/UTF8
Codec ID/Info : UTF-8 Plain Text
Title : French
Language : French
Default : No
Forced : No
Text #4
ID : 7
Format : UTF-8
Codec ID : S_TEXT/UTF8
Codec ID/Info : UTF-8 Plain Text
Title : Spanish
Language : Spanish
Default : No
Forced : No
Menu
00:00:00.000 : en:1. Awakening The Beast
00:03:08.188 : en:2. Baby Hawk
00:10:55.071 : en:3. A Great Discovery
00:16:45.087 : en:4. An Understanding
00:20:26.684 : en:5. Making Friends
00:24:20.501 : en:6. Tower Building
00:30:58.732 : en:7. Introducing Gruff
00:34:42.038 : en:8. Fawn's Expertise
00:38:09.245 : en:9. The Beast's Safety
00:41:13.012 : en:10. The Search Begins
00:44:39.468 : en:11. Transformation
00:49:54.992 : en:12. Learning The Truth
00:53:05.766 : en:13. Fighting The Storm
00:57:07.883 : en:14. Saving Pixie Hollow
01:02:54.688 : en:15. Going Home
01:07:54.612 : en:16. End Credits
-

Скриншоты:

Яндекс.Метрика
Рейтинг@Mail.ru