Город героев / Big Hero 6 (Дон Холл, Крис Уильямс) [2014, мультфильм, фантастика, комедия, семейный, боевик, BDRip 720p][Лицензия]

 

Создавать темы 05-Апр-2015 11:36

Город героев / Big Hero 6--

  • Год выпуска: 2014
  • Страна: США
  • Жанр: мультфильм, фантастика, комедия, семейный, боевик
  • Продолжительность: 01:41:52
  • Перевод: Дублированный [Лицензия]
  • Субтитры: Русские, украинские, английские
  • В ролях: Райан Поттер, Скотт Эдсит, Джейми Чунг, ТиДжей Миллер, Дженезис Родригез, Дэймон Уайанс мл., Майя Рудольф, Джеймс Кромуэлл, Алан Тьюдик
  • Режиссёр: Дон Холл, Крис Уильямс

    Юный Хиро Хамада - прирожденный изобретатель и гений конструирования роботов. Вместе со старшим братом Тадаши они воплощают в жизнь самые передовые идеи в Техническом университете города будущего Сан-Франсокио. После серии загадочных событий друзья оказываются в центре коварного заговора. Отчаявшись, Хиро решает использовать веселого и добродушного экспериментального робота Бэймакса, перепрограммировав его в неуязвимую боевую машину.--
  • Качество: BDRip 720p
  • Формат: MKV
  • Видео кодек: AVC
  • Аудио кодек: AC3
  • Видео: AVC, 1280x536, 5215 Кбит/сек, 23.976 кадр/сек
  • Аудио: АС3, 640 Кбит/сек, 6 канала(ов), 48,0 КГц - Русский
  • Аудио: АС3, 640 Кбит/сек, 6 канала(ов), 48,0 КГц - Английский
  • Автор рипа: feedback
--

MediaInfo:

General
Unique ID                   : 201368613170981621045897607144193795330 (0x977E2F2781AE40FDB96C7E69DD3A2502)
Complete name               : C:\Users\feedback\Desktop\Big.Hero. 6.2014.BDRip.720p.feedback.mkv
Format                      : Matroska
Format version              : Version 4 / Version 2
File size                   : 4.62 GiB
Duration                    : 1h 41mn
Overall bit rate            : 6 498 Kbps
Encoded date                : UTC 2015-03-17 14:10:00
Writing application         : mkvmerge v6.1.0 ('Old Devil') built on Mar  4 2013 09:10:42
Writing library             : libebml v1.3.0 + libmatroska v1.4.0
Video
ID                          : 1
Format                      : AVC
Format/Info                 : Advanced Video Codec
Format profile              : [email protected]
Format settings, CABAC      : Yes
Format settings, ReFrames   : 12 frames
Codec ID                    : V_MPEG4/ISO/AVC
Duration                    : 1h 41mn
Bit rate                    : 5 215 Kbps
Width                       : 1 280 pixels
Height                      : 536 pixels
Display aspect ratio        : 2.40:1
Frame rate mode             : Constant
Frame rate                  : 23.976 fps
Color space                 : YUV
Chroma subsampling          : 4:2:0
Bit depth                   : 8 bits
Scan type                   : Progressive
Bits/(Pixel*Frame)          : 0.317
Stream size                 : 3.62 GiB (78%)
Title                       : Город героев
Writing library             : x264 core 130 r2273 b3065e6
Encoding settings           : cabac=1 / ref=12 / deblock=1:-3:-3 / analyse=0x3:0x133 / me=umh / subme=11 / psy=1 / psy_rd=1.00:0.10 / mixed_ref=1 / me_range=32 / chroma_me=1 / trellis=2 / 8x8dct=1 / cqm=0 / deadzone=21,11 / fast_pskip=0 / chroma_qp_offset=-3 / threads=6 / lookahead_threads=3 / sliced_threads=0 / nr=0 / decimate=1 / interlaced=0 / bluray_compat=0 / constrained_intra=0 / bframes=10 / b_pyramid=2 / b_adapt=2 / b_bias=0 / direct=3 / weightb=1 / open_gop=0 / weightp=2 / keyint=240 / keyint_min=23 / scenecut=40 / intra_refresh=0 / rc_lookahead=60 / rc=2pass / mbtree=1 / bitrate=5215 / ratetol=1.0 / qcomp=0.60 / qpmin=0 / qpmax=69 / qpstep=4 / cplxblur=20.0 / qblur=0.5 / ip_ratio=1.40 / aq=1:1.00
Language                    : English
Default                     : Yes
Forced                      : No
Audio #1
ID                          : 2
Format                      : AC-3
Format/Info                 : Audio Coding 3
Mode extension              : CM (complete main)
Format settings, Endianness : Big
Codec ID                    : A_AC3
Duration                    : 1h 41mn
Bit rate mode               : Constant
Bit rate                    : 640 Kbps
Channel(s)                  : 6 channels
Channel positions           : Front: L C R, Side: L R, LFE
Sampling rate               : 48.0 KHz
Bit depth                   : 16 bits
Compression mode            : Lossy
Stream size                 : 466 MiB (10%)
Title                       : Дублированный [Лицензия]
Language                    : Russian
Default                     : Yes
Forced                      : Yes
Audio #2
ID                          : 3
Format                      : AC-3
Format/Info                 : Audio Coding 3
Mode extension              : CM (complete main)
Format settings, Endianness : Big
Codec ID                    : A_AC3
Duration                    : 1h 41mn
Bit rate mode               : Constant
Bit rate                    : 640 Kbps
Channel(s)                  : 6 channels
Channel positions           : Front: L C R, Side: L R, LFE
Sampling rate               : 48.0 KHz
Bit depth                   : 16 bits
Compression mode            : Lossy
Stream size                 : 466 MiB (10%)
Title                       : Оригинал
Language                    : English
Default                     : No
Forced                      : No
Text #1
ID                          : 4
Format                      : UTF-8
Codec ID                    : S_TEXT/UTF8
Codec ID/Info               : UTF-8 Plain Text
Title                       : Full
Language                    : Russian
Default                     : No
Forced                      : No
Text #2
ID                          : 5
Format                      : UTF-8
Codec ID                    : S_TEXT/UTF8
Codec ID/Info               : UTF-8 Plain Text
Title                       : Forced
Language                    : Ukrainian
Default                     : No
Forced                      : No
Text #3
ID                          : 6
Format                      : UTF-8
Codec ID                    : S_TEXT/UTF8
Codec ID/Info               : UTF-8 Plain Text
Title                       : Full
Language                    : Ukrainian
Default                     : No
Forced                      : No
Text #4
ID                          : 7
Format                      : UTF-8
Codec ID                    : S_TEXT/UTF8
Codec ID/Info               : UTF-8 Plain Text
Title                       : Full
Language                    : English
Default                     : No
Forced                      : No
Menu
00:00:00.000                : en: 1. Hustle
00:07:15.685                : en: 2. Nerd School
00:14:37.835                : en: 3. Showcase
00:21:49.183                : en: 4. Tragedy
00:24:32.888                : en: 5. A New Friend
00:29:34.731                : en: 6. Being Helpful
00:36:58.091                : en: 7. Upgrade
00:44:18.322                : en: 8. The Chase
00:50:49.088                : en: 9. Fred's House
00:54:33.020                : en:10. Training
01:00:44.140                : en:11. Secret Lair
01:07:12.612                : en:12. Big Reveal
01:11:54.644                : en:13. Putting It All Together
01:16:26.665                : en:14. Saving The Day!
01:24:44.162                : en:15. The Portal
01:31:52.757                : en:16. End Credits

Скриншоты:

Яндекс.Метрика
Рейтинг@Mail.ru