[ Сегодня на трекере фрилич! Идет свободное скачивание без начисления Download ]

Вердикт / Het Vonnis (2013) BDRip [720p]

 

Создавать темы 05-Апр-2015 09:22

-Вердикт / Het Vonnis (2013) BDRip- Производство: Бельгия
Жанр: Драма
Режиссер: Ян Верхейен
Актеры: Коэн Де Боу, Йохан Лейзен, Верле Батенс, Яппе Клас, Крис Ломме, Хендрик Эртз, Вивиан де Мюйнк, Воутер Хендрикс, Дирк Тёйпенс
Описание:
У Люка Сегерса было все — успешная карьера инженера в престижной фирме, красивая и любящая жена Элла и дочка Анна. Однажды вечером, возвращаясь домой после работы, они остановились на заправке. Пока муж заправлял машину, жена ушла купить хлеб в магазине неподалеку. И тогда мир Люка Сегерса рухнул, словно карточный домик. Все, что у него было, исчезло, а вскоре само его будущее покрылось туманом неизвестности.
Продолжительность: 01:47:30
Качество видео: BDRip (720p)
Перевод: Любительский двухголосый (DeadSno & den904)
Видео: MPEG-4 AVC, 1280x536, 4315 Кбит/с
Аудио:
1. AC3, 6 ch, 448 Кбит/с - русский
2. DTS, 6 ch, 1510 Кбит/с - нидерландский

MI

Общее
Уникальный идентификатор : 233415116564970254287194701412413607230 (0xAF9A1DC254D473AF82EC2120E20A0D3E)
Полное имя : C:\Вердикт\Verdict 2013 BDRip 720p.mkv
Формат : Matroska
Версия формата : Version 4 / Version 2
Размер файла : 4,70 Гбайт
Продолжительность : 1 ч. 47 м.
Общий поток : 6263 Кбит/сек
Программа кодирования : mkvmerge v7.8.0 ('River Man') 64bit built on Mar 27 2015 16:31:37
Библиотека кодирования : libebml v1.3.1 + libmatroska v1.4.2
Видео
Идентификатор : 1
Формат : AVC
Формат/Информация : Advanced Video Codec
Профиль формата : [url=mailto:[email protected]][email protected][/url]
Параметр CABAC формата : Да
Параметр ReFrames формата : 5 кадров
Идентификатор кодека : V_MPEG4/ISO/AVC
Продолжительность : 1 ч. 47 м.
Битрейт : 4315 Кбит/сек
Ширина : 1280 пикселей
Высота : 536 пикселей
Соотношение сторон : 2,40:1
Частота кадров : 25,000 кадров/сек
Цветовое пространство : YUV
Субдискретизация насыщенности : 4:2:0
Битовая глубина : 8 бит
Тип развёртки : Прогрессивная
Бит/(Пиксели*Кадры) : 0.252
Размер потока : 3,14 Гбайт (67%)
Библиотека кодирования : x264 core 142 r2389 956c8d8
Настройки программы : cabac=1 / ref=5 / deblock=1:0:0 / analyse=0x3:0x133 / me=umh / subme=7 / psy=1 / psy_rd=1.00:0.00 / mixed_ref=1 / me_range=16 / chroma_me=1 / trellis=1 / 8x8dct=1 / cqm=0 / deadzone=21,11 / fast_pskip=0 / chroma_qp_offset=-2 / threads=12 / lookahead_threads=2 / sliced_threads=0 / nr=0 / decimate=1 / interlaced=0 / bluray_compat=0 / constrained_intra=0 / bframes=3 / b_pyramid=2 / b_adapt=2 / b_bias=0 / direct=3 / weightb=1 / open_gop=0 / weightp=2 / keyint=250 / keyint_min=25 / scenecut=40 / intra_refresh=0 / rc_lookahead=50 / rc=2pass / mbtree=1 / bitrate=4315 / ratetol=1.0 / qcomp=0.60 / qpmin=0 / qpmax=69 / qpstep=4 / cplxblur=20.0 / qblur=0.5 / ip_ratio=1.40 / aq=1:1.00
Язык : Dutch
Default : Да
Forced : Нет
Аудио #1
Идентификатор : 2
Формат : AC-3
Формат/Информация : Audio Coding 3
Расширение режима : CM (complete main)
Идентификатор кодека : A_AC3
Продолжительность : 1 ч. 47 м.
Вид битрейта : Постоянный
Битрейт : 448 Кбит/сек
Каналы : 6 каналов
Расположение каналов : Front: L C R, Side: L R, LFE
Частота : 48,0 КГц
Битовая глубина : 16 бит
Метод сжатия : С потерями
Размер потока : 344 Мбайт (7%)
Заголовок : Влад и Снежинка
Язык : Russian
Default : Да
Forced : Да
Аудио #2
Идентификатор : 3
Формат : DTS
Формат/Информация : Digital Theater Systems
Идентификатор кодека : A_DTS
Продолжительность : 1 ч. 47 м.
Вид битрейта : Постоянный
Битрейт : 1510 Кбит/сек
Каналы : 6 каналов
Расположение каналов : Front: L C R, Side: L R, LFE
Частота : 48,0 КГц
Битовая глубина : 24 бит
Метод сжатия : С потерями
Размер потока : 1,13 Гбайт (24%)
Язык : Dutch
Default : Нет
Forced : Нет
Текст #1
Идентификатор : 4
Формат : UTF-8
Идентификатор кодека : S_TEXT/UTF8
Идентификатор кодека/Информация : UTF-8 Plain Text
Язык : Russian
Default : Да
Forced : Да
Текст #2
Идентификатор : 5
Формат : UTF-8
Идентификатор кодека : S_TEXT/UTF8
Идентификатор кодека/Информация : UTF-8 Plain Text
Заголовок : Mannenr
Язык : Russian
Default : Нет
Forced : Нет
Текст #3
Идентификатор : 6
Формат : UTF-8
Идентификатор кодека : S_TEXT/UTF8
Идентификатор кодека/Информация : UTF-8 Plain Text
Язык : English
Default : Нет
Forced : Нет
Меню
00:00:00.000 : en:00:00:00.000
00:07:40.800 : en:00:07:40.800
00:15:52.440 : en:00:15:52.440
00:24:15.160 : en:00:24:15.160
00:34:40.440 : en:00:34:40.440
00:41:51.920 : en:00:41:51.920
00:50:35.080 : en:00:50:35.080
00:59:14.040 : en:00:59:14.040
01:04:57.200 : en:01:04:57.200
01:13:57.880 : en:01:13:57.880
01:25:25.120 : en:01:25:25.120
01:37:15.440 : en:01:37:15.440
01:43:28.800 : en:01:43:28.800
Скриншоты:Время раздачи: Круглосуточно до 10 скачавших
Яндекс.Метрика
Рейтинг@Mail.ru