Торговля кожей / Skin Traffik (2015 , Боевик, криминал) HDRip-AVC

 

Создавать темы 05-Апр-2015 07:39

-Торговля кожей / Skin Traffik (2015)Информация о фильме
Название: Торговля кожей
Оригинальное название: Skin Traffik
Год выхода: 2015
Жанр: Боевик, криминал
Режиссер: Ара Пайая
В ролях: Гэри Дэниелс, Микки Рурк, Эрик Робертс, Дэрил Ханна, Майкл Мэдсен, Доминик Суэйн, Алан Форд, Джефф Фэйи, Челси Ли, Рон Смуренбург
О фильме: Измученный киллер пытается восстановить свою человечность в жестоком преступном мире, выживание в котором является скорее инстинктом, нежели мастерством.

Страна: Великобритания
Студия: Raging Pictures
Продолжительность: 01:33:16
Озвучивание: Любительское (двухголосое) [ColdFilm]
Файл
Качество: HDRip (AVC)
Видео: MPEG-4 AVC, 1885 Кбит/с, 1024x436
Аудио: AC3, 2 ch, 192 Кбит/с

Медиа-инфо

General
Unique ID : 215301348342160923992333262449678973697 (0xA1F98808C6A9766BB222EE8488777B01)
Complete name : C:Torgovlya.Kozhey.2015.L2.HDRip.ExKinoRay.mkv
Format : Matroska
Format version : Version 4 / Version 2
File size : 1.35 GiB
Duration : 1h 33mn
Overall bit rate : 2 077 Kbps
Movie name : Torgovlya Kozhey 2015
Encoded date : UTC 2015-04-05 04:09:03
Writing application : mkvmerge v6.6.0 ('The Edge Of The In Between') built on Dec 1 2013 17:55:00
Writing library : libebml v1.3.0 + libmatroska v1.4.1
Video
ID : 1
Format : AVC
Format/Info : Advanced Video Codec
Format profile : [email protected]
Format settings, CABAC : Yes
Format settings, ReFrames : 10 frames
Codec ID : V_MPEG4/ISO/AVC
Duration : 1h 33mn
Bit rate : 1 885 Kbps
Width : 1 024 pixels
Height : 436 pixels
Display aspect ratio : 2.35:1
Frame rate mode : Constant
Frame rate : 25.000 fps
Color space : YUV
Chroma subsampling : 4:2:0
Bit depth : 8 bits
Scan type : Progressive
Bits/(Pixel*Frame) : 0.169
Stream size : 1.20 GiB (89%)
Title : Enigma
Writing library : x264 core 133 r2334 a3ac64b
Encoding settings : cabac=1 / ref=10 / deblock=1:-2:-2 / analyse=0x3:0x113 / me=umh / subme=10 / psy=1 / psy_rd=1.05:0.15 / mixed_ref=1 / me_range=32 / chroma_me=1 / trellis=2 / 8x8dct=1 / cqm=0 / deadzone=21,11 / fast_pskip=0 / chroma_qp_offset=-3 / threads=12 / lookahead_threads=2 / sliced_threads=0 / nr=0 / decimate=0 / interlaced=0 / bluray_compat=0 / constrained_intra=0 / bframes=9 / b_pyramid=2 / b_adapt=2 / b_bias=0 / direct=3 / weightb=1 / open_gop=0 / weightp=2 / keyint=250 / keyint_min=25 / scenecut=40 / intra_refresh=0 / rc=2pass / mbtree=0 / bitrate=1885 / ratetol=1.0 / qcomp=0.60 / qpmin=0 / qpmax=51 / qpstep=4 / cplxblur=20.0 / qblur=0.5 / ip_ratio=1.40 / pb_ratio=1.30 / aq=1:1.00
Language : English
Default : Yes
Forced : No
Color primaries : BT.709
Transfer characteristics : BT.709
Matrix coefficients : BT.709
Audio
ID : 2
Format : AC-3
Format/Info : Audio Coding 3
Mode extension : CM (complete main)
Format settings, Endianness : Big
Codec ID : A_AC3
Duration : 1h 33mn
Bit rate mode : Constant
Bit rate : 192 Kbps
Channel(s) : 2 channels
Channel positions : Front: L R
Sampling rate : 48.0 KHz
Bit depth : 16 bits
Compression mode : Lossy
Stream size : 128 MiB (9%)
Title : ColdFilm
Language : Russian
Default : Yes
Forced : No

Скриншоты:

Яндекс.Метрика
Рейтинг@Mail.ru