[ Сегодня на трекере фрилич! Идет свободное скачивание без начисления Download ]

Geekbrains | PHP. Уровень 2 Профессиональная веб-разработка (2015) PCRec

 

Создавать темы 03-Апр-2015 17:12

Geekbrains | PHP. Уровень 2 Профессиональная веб-разработка (2015) PCRec Автор (режиссер): Geekbrains
Жанр: Программирование, PHP
Продолжительность: 15:00:00
Качество видео: PCRec
Видеокодек: AVC
Битрейт видео: ~77,0 kb/s 15,00 FPS
Размер кадра: 1280 x 720
Аудиокодек: AAC 2.0
Битрейт аудио: 64,0 kb/s (CBR), 2 Ch, 44100 Hz
Описание:
Это самый полный профессиональный курс по освоению PHP на уровне мастера-виртуоза. Это для тех кто уже понимает что такое PHP, каковы мощь и потенциал этого языка. Люди, завершившие курс, утверждают что один месяц обучения по данной программе можно сравнить с ГОДАМИ обучения по книгам или материалам из интернета!

Чему научат:

Создавать сайты любой сложности
Грамотно организовывать архитектуру баз данных
Использовать архитектурный шаблон проектирования MVC
Защищать скрипты от SQL-инъекций и других вариантов взлома
Максимально использовать возможности Объектно-Ориентированного Программирования
Пользоваться шаблонизаторами
Использовать оптимальные шаблоны проектирования для решения поставленных задач
Применять возможности 5-ой версии языка PHP
Правильно организовывать процесс разработки от начала до конца
Иметь практический опыт реализации основных современных функциональных решений: авторизация, каталог, галерея, блог, личный кабинет, лента новостей и т.п.
И многое другое..

Mediainfo:

Код:
Общее
Полное имя : C:[Geekbrains] PHP. Уровень 2 Профессиональная веб-разработка
Формат : MPEG-4
Профиль формата : Base Media
Идентификатор кодека : isom
Размер файла : 120 Мбайт
Продолжительность : 1 ч. 53 м.
Общий поток : 148 Кбит/сек
Исполнитель : "Recording #836047"
Программа кодирования : Lavf54.29.104
Видео
Идентификатор : 1
Формат : AVC
Формат/Информация : Advanced Video Codec
Профиль формата : [email protected]
Параметр CABAC формата : Да
Параметр ReFrames формата : 4 кадра
Идентификатор кодека : avc1
Идентификатор кодека/Информация : Advanced Video Coding
Продолжительность : 1 ч. 53 м.
Битрейт : 77,0 Кбит/сек
Ширина : 1280 пикселей
Высота : 720 пикселей
Соотношение сторон : 16:9
Режим частоты кадров : Постоянный
Частота кадров : 15,000 кадров/сек
Цветовое пространство : YUV
Субдискретизация насыщенности : 4:2:0
Битовая глубина : 8 бит
Тип развёртки : Прогрессивная
Бит/(Пиксели*Кадры) : 0.006
Размер потока : 62,6 Мбайт (52%)
Библиотека кодирования : x264 core 132
Настройки программы : cabac=1 / ref=1 / deblock=1:0:0 / analyse=0x1:0x111 / me=hex / subme=2 / psy=1 / psy_rd=1.00:0.00 / mixed_ref=0 / me_range=16 / chroma_me=1 / trellis=0 / 8x8dct=0 / cqm=0 / deadzone=21,11 / fast_pskip=1 / chroma_qp_offset=0 / threads=4 / lookahead_threads=1 / sliced_threads=0 / nr=0 / decimate=1 / interlaced=0 / bluray_compat=0 / constrained_intra=0 / bframes=3 / b_pyramid=2 / b_adapt=1 / b_bias=0 / direct=1 / weightb=1 / open_gop=0 / weightp=1 / keyint=250 / keyint_min=15 / scenecut=40 / intra_refresh=0 / rc_lookahead=10 / rc=crf / mbtree=1 / crf=26.0 / qcomp=0.60 / qpmin=0 / qpmax=69 / qpstep=4 / ip_ratio=1.40 / aq=1:1.00
Аудио
Идентификатор : 2
Формат : AAC
Формат/Информация : Advanced Audio Codec
Профиль формата : LC
Идентификатор кодека : 40
Продолжительность : 1 ч. 53 м.
Вид битрейта : Постоянный
Битрейт : 64,0 Кбит/сек
Каналы : 2 канала
Расположение каналов : Front: L R
Частота : 44,1 КГц
Метод сжатия : С потерями
Размер потока : 52,0 Мбайт (43%)
Скриншоты:
Яндекс.Метрика
Рейтинг@Mail.ru