[ Сегодня на трекере фрилич! Идет свободное скачивание без начисления Download ]

Гнев / Tokarev (Пако Кабесас) [2014 г., Боевик, триллер, криминал, BDRip 1080p] DUB [iTunes]

 

Создавать темы 03-Апр-2015 15:27


Гнев / Tokarev«Прошлое никогда не оставит тебя»- Год выхода: 2014
Страна: США, Франция
Жанр: Боевик, триллер, криминал
Продолжительность: 01:38:26
Перевод: Профессиональный (полное дублирование) [iTunes]
Субтитры: Русские, английские
Режиссер: Пако Кабесас
В ролях: Николас Кейдж, Рэйчел Николс, Петер Стормаре, Дэнни Гловер, Обри Пиплз, Елена Санчес, Майкл МакГрэйди, Павел Личникофф, Доун Хэмил, Макс Райан
О фильме: Пол Магуаер — бывший гангстер, а теперь добропорядочный бизнесмен и примерный семьянин. Но когда его дочь похищают, он вынужден поднять свои старые связи и снова вернуться на скользкую дорожку…
Качество: BDRip 1080p
Формат: mkv
Видео кодек: AVC
Аудио кодек: AC3, DTS
Видео: 1920x816, 23.976 fps, 16000 Кбит/с
Аудио #1: АС3, 384 kb/s, 6 ch, 48.0 KHz [Russian]
Аудио #2: DTS, 1509 kb/s, 6 ch, 48.0 KHz [English]
Дополнительно: Сохранены оригинальные чаптеры как на Blu-ray.
Рейтинг

MI


Уникальный идентификатор : 215570476766718971929839235076169700603 (0xA22D5D170ED2D1E99066D24B8EE894FB)
Полное имя : C:\225\Tokarev 2014 1080p BluRay DTS x264-DON\Tokarev 2014 1080p BluRay DTS x264-DON.mkv
Формат : Matroska
Версия формата : Version 2
Размер файла : 12,3 Гбайт
Продолжительность : 1 ч. 38 м.
Общий поток : 17,9 Мбит/сек
Дата кодирования : UTC 2015-03-26 19:36:11
Программа кодирования : mkvmerge v6.2.0 ('Promised Land') built on Apr 28 2013 12:22:01
Библиотека кодирования : libebml v1.3.0 + libmatroska v1.4.0
Видео
Идентификатор : 1
Формат : AVC
Формат/Информация : Advanced Video Codec
Профиль формата : [email protected]
Параметр CABAC формата : Да
Параметр ReFrames формата : 5 кадров
Идентификатор кодека : V_MPEG4/ISO/AVC
Продолжительность : 1 ч. 38 м.
Битрейт : 16,0 Мбит/сек
Ширина : 1920 пикселей
Высота : 816 пикселей
Соотношение сторон : 2,35:1
Режим частоты кадров : Постоянный
Частота кадров : 23,976 кадра/сек
Цветовое пространство : YUV
Субдискретизация насыщенности : 4:2:0
Битовая глубина : 8 бит
Тип развёртки : Прогрессивная
Бит/(Пиксели*Кадры) : 0.426
Размер потока : 10,7 Гбайт (87%)
Заголовок : 1080p x264 L4.1 @ 15960 Kbps
Библиотека кодирования : x264 core 142 r2409+42 04be48a tMod [[email protected] X86_64]
Настройки программы : cabac=1 / ref=5 / deblock=1:-3:-3 / analyse=0x3:0x133 / me=umh / subme=11 / psy=1 / fade_compensate=0.00 / psy_rd=1.10:0.00 / mixed_ref=1 / me_range=40 / chroma_me=1 / trellis=2 / 8x8dct=1 / cqm=0 / deadzone=21,11 / fast_pskip=0 / chroma_qp_offset=-2 / threads=6 / lookahead_threads=1 / sliced_threads=0 / nr=0 / decimate=0 / interlaced=0 / bluray_compat=0 / constrained_intra=0 / fgo=0 / bframes=10 / b_pyramid=2 / b_adapt=2 / b_bias=0 / direct=3 / weightb=1 / open_gop=0 / weightp=2 / keyint=250 / keyint_min=23 / scenecut=40 / intra_refresh=0 / rc_lookahead=60 / rc=2pass / mbtree=0 / bitrate=16000 / ratetol=3.0 / qcomp=0.70 / qpmin=0:0:0 / qpmax=69:69:69 / qpstep=4 / cplxblur=20.0 / qblur=0.5 / vbv_maxrate=50000 / vbv_bufsize=62500 / nal_hrd=none / filler=0 / ip_ratio=1.40 / pb_ratio=1.20 / aq=4:0.80 / aq-sensitivity=10.00 / aq-factor=1.00:1.00:1.00 / aq2=0 / aq3=0
Язык : English
Default : Да
Forced : Нет
Основные цвета : BT.709
Характеристики трансфера : BT.709
Коэффициенты матрицы : BT.709
Аудио #1
Идентификатор : 2
Формат : AC-3
Формат/Информация : Audio Coding 3
Расширение режима : CM (complete main)
Параметр Endianness формата : Big
Идентификатор кодека : A_AC3
Продолжительность : 1 ч. 38 м.
Вид битрейта : Постоянный
Битрейт : 384 Кбит/сек
Каналы : 6 каналов
Расположение каналов : Front: L C R, Side: L R, LFE
Частота : 48,0 КГц
Битовая глубина : 16 бит
Метод сжатия : С потерями
Размер потока : 270 Мбайт (2%)
Язык : Russian
Default : Да
Forced : Нет
Аудио #2
Идентификатор : 3
Формат : DTS
Формат/Информация : Digital Theater Systems
Режим : 16
Параметр Endianness формата : Big
Идентификатор кодека : A_DTS
Продолжительность : 1 ч. 38 м.
Вид битрейта : Постоянный
Битрейт : 1509 Кбит/сек
Каналы : 6 каналов
Расположение каналов : Front: L C R, Side: L R, LFE
Частота : 48,0 КГц
Битовая глубина : 24 бит
Метод сжатия : С потерями
Размер потока : 1,04 Гбайт (8%)
Заголовок : DTS Core 5.1 @ 1.5 Mbps
Язык : English
Default : Нет
Forced : Нет
Текст #1
Идентификатор : 4
Формат : UTF-8
Идентификатор кодека : S_TEXT/UTF8
Идентификатор кодека/Информация : UTF-8 Plain Text
Язык : Russian
Default : Нет
Forced : Нет
Текст #2
Идентификатор : 5
Формат : UTF-8
Идентификатор кодека : S_TEXT/UTF8
Идентификатор кодека/Информация : UTF-8 Plain Text
Язык : English
Default : Да
Forced : Нет
Меню
00:00:00.000 : en:Chapter 1
00:08:35.598 : en:Chapter 2
00:16:44.295 : en:Chapter 3
00:24:59.998 : en:Chapter 4
00:37:21.448 : en:Chapter 5
00:42:16.200 : en:Chapter 6
00:48:20.356 : en:Chapter 7
00:55:27.032 : en:Chapter 8
01:07:48.731 : en:Chapter 9
01:13:20.146 : en:Chapter 10
01:19:58.711 : en:Chapter 11
01:27:23.071 : en:Chapter 12

Доп. информация

Бюджет: $21 000 000
Дата мировой премьеры: 31 января 2014
Дата российской премьеры: 12 марта 2015, «Парадиз»
Скриншоты
Яндекс.Метрика
Рейтинг@Mail.ru