[ Сегодня на трекере фрилич! Идет свободное скачивание без начисления Download ]

Турбо / Turbo (Дэвид Сорен) [2013 г., Мультфильм, комедия, приключения, семейный, спорт, BDRip 1080p] Crop Anamorph OverUnder / Вертикальная анаморфная стереопара [Без чёрных полос!]

 

Создавать темы 27-Ноя-2013 12:21

Турбо

Turbo

- -
  • Год выпуска: 2013
  • Страна: США
  • Жанр: Мультфильм, комедия, приключения, семейный, спорт
  • Продолжительность: 01:35:40
  • Перевод: Профессиональный дублированный (Лицензия)
  • Субтитры: Отсутствуют
  • Режиссер: Дэвид Сорен
  • Роли озвучивали: Райан Рейнольдс, Пол Джаматти, Майкл Пенья, Луис Гузман, Билл Хейдер, Ричард Дженкинс, Кен Жонг, Мишель Родригез, Майя Рудольф, Бен Шварц-
  • Описание: Ничто так не раздражает темпераментную, мечтающую о скорости улитку с говорящим именем Турбо как неспешная жизнь, медленные разговоры, заторможенные соседи. Пусть наш герой выглядит большим чудаком в этом вялом, неторопливом мире, пусть он идет вопреки закону природы о «рожденном ползать», но если в сердце горит «пламенный мотор», а душа верит в чудо, оно просто не имеет право не произойти!-
  • Качество: BDRip 1080p
  • Формат 3D: Crop OverUnder / Вертикальная анаморфная стереопара [Без чёрных полос!]
  • Порядок ракурсов:: Левый ракурс первый
  • Видео кодек: Advanced Video Codec
  • Аудио кодек: AC3
  • Видео: AVC, 1 920x1 080 (16:9), 23.976 кадр/сек, 6565 Кбит/сек
  • Аудио#1: Русский, 48 kHz, AC3 Dolby Digital, 3/2 (L,C,R,l,r) + LFE ch, 640 kbps avg
  • Аудио#2: Украинский, 48 kHz, AC3 Dolby Digital, 3/2 (L,C,R,l,r) + LFE ch, 448 kbps avg
  • Аудио#3: Английский, 48 kHz, AC3 Dolby Digital, 3/2 (L,C,R,l,r) + LFE ch, 640 kbps avg-
  • Релиз: -

    Рейтинги

    -

    MediaInfo

    Общее
    Уникальный идентификатор : 249797658771350625566694895058472758983 (0xBBED477386FDFF378E9A01C3AE296EC7)
    Полное имя : E:\STEREO CROP\Turbo_(CROP)_Rip by Dag13.mkv
    Формат : Matroska
    Версия формата : Version 2
    Размер файла : 5,66 Гбайт
    Продолжительность : 1 ч. 35 м.
    Общий поток : 8462 Кбит/сек
    Дата кодирования : UTC 2013-11-01 03:51:05
    Программа кодирования : mkvmerge v3.4.0 ('Rapunzel') сборка от May 15 2010 09:38:20
    Библиотека кодирования : libebml v0.8.0 + libmatroska v0.9.0
    Видео
    Идентификатор : 1
    Формат : AVC
    Формат/Информация : Advanced Video Codec
    Профиль формата : [url=mailto:[email protected]][email protected][/url]
    Параметр CABAC формата : Да
    Параметр ReFrames формата : 4 кадра
    Идентификатор кодека : V_MPEG4/ISO/AVC
    Продолжительность : 1 ч. 35 м.
    Битрейт : 6565 Кбит/сек
    Ширина : 1920 пикселей
    Высота : 1080 пикселей
    Соотношение сторон : 16:9
    Режим частоты кадров : Постоянный
    Частота кадров : 23,976 кадра/сек
    Цветовое пространство : YUV
    Субдискретизация насыщенности : 4:2:0
    Битовая глубина : 8 бит
    Тип развёртки : Прогрессивная
    Бит/(Пиксели*Кадры) : 0.132
    Размер потока : 4,39 Гбайт (78%)
    Заголовок : Rip by Dag13
    Библиотека кодирования : x264 core 116 r2074 2641b9e
    Настройки программы : cabac=1 / ref=4 / deblock=1:-3:-3 / analyse=0x3:0x113 / me=umh / subme=9 / psy=1 / psy_rd=1.00:0.00 / mixed_ref=1 / me_range=16 / chroma_me=1 / trellis=2 / 8x8dct=1 / cqm=0 / deadzone=21,11 / fast_pskip=1 / chroma_qp_offset=-2 / threads=9 / sliced_threads=0 / nr=0 / decimate=1 / interlaced=0 / bluray_compat=0 / constrained_intra=0 / bframes=6 / b_pyramid=2 / b_adapt=2 / b_bias=0 / direct=3 / weightb=1 / open_gop=0 / weightp=2 / keyint=250 / keyint_min=23 / scenecut=40 / intra_refresh=0 / rc_lookahead=60 / rc=crf / mbtree=1 / crf=18.0 / qcomp=0.60 / qpmin=1 / qpmax=69 / qpstep=4 / ip_ratio=1.40 / aq=1:1.00
    Язык : English
    Default : Нет
    Forced : Нет
    Аудио #1
    Идентификатор : 2
    Формат : AC-3
    Формат/Информация : Audio Coding 3
    Расширение режима : CM (complete main)
    Параметр Endianness формата : Big
    Идентификатор кодека : A_AC3
    Продолжительность : 1 ч. 35 м.
    Вид битрейта : Постоянный
    Битрейт : 640 Кбит/сек
    Каналы : 6 каналов
    Расположение каналов : Front: L C R, Side: L R, LFE
    Частота : 48,0 КГц
    Битовая глубина : 16 бит
    Метод сжатия : С потерями
    Размер потока : 438 Мбайт (8%)
    Язык : Russian
    Default : Да
    Forced : Нет
    Аудио #2
    Идентификатор : 3
    Формат : AC-3
    Формат/Информация : Audio Coding 3
    Расширение режима : CM (complete main)
    Параметр Endianness формата : Big
    Идентификатор кодека : A_AC3
    Продолжительность : 1 ч. 35 м.
    Вид битрейта : Постоянный
    Битрейт : 448 Кбит/сек
    Каналы : 6 каналов
    Расположение каналов : Front: L C R, Side: L R, LFE
    Частота : 48,0 КГц
    Битовая глубина : 16 бит
    Метод сжатия : С потерями
    Размер потока : 307 Мбайт (5%)
    Язык : Ukrainian
    Default : Нет
    Forced : Нет
    Аудио #3
    Идентификатор : 4
    Формат : AC-3
    Формат/Информация : Audio Coding 3
    Расширение режима : CM (complete main)
    Параметр Endianness формата : Big
    Идентификатор кодека : A_AC3
    Продолжительность : 1 ч. 35 м.
    Вид битрейта : Постоянный
    Битрейт : 640 Кбит/сек
    Каналы : 6 каналов
    Расположение каналов : Front: L C R, Side: L R, LFE
    Частота : 48,0 КГц
    Битовая глубина : 16 бит
    Метод сжатия : С потерями
    Размер потока : 438 Мбайт (8%)
    Язык : English
    Default : Нет
    Forced : Нет
    -

Скриншоты

Внимание! Справа и слева у видеоряда обрезано по 248р, что дает возможность просмотра на полный экран (без черных полос) на телевизорах с соотношением сторон 16:9 без изменения пропорций.
Яндекс.Метрика
Рейтинг@Mail.ru