[ Сегодня на трекере фрилич! Идет свободное скачивание без начисления Download ]

Лесной змей / Wyrmwood (2014) BDRip [H.264/1080p]

 

Создавать темы 02-Апр-2015 19:12

--Лесной змей / Wyrmwood (2014) BDRip-- Производство: Австралия / Guerilla Films
Жанр: Ужасы, Боевик
Режиссер: Кия Роуч-Тернер
Продюсер: Джэми Хилтон, Киаран Джордан, Джош Померанц
Актеры: Джей Галлахер, Бьянка Брэди, Леон Бурчилл, Люк МакКензи, Юр Кович, Кит Агиус, Катрин Террачини, Кэйн Томпсон, Бет Обри
Описание фильма:
Барри был талантливым механиком и семейным человеком, пока его жизнь не была разрушена в канун зомби-апокалипсиса. В дороге он объединяется с ещё одним выжившим, Чалкером, и вместе они вооружают себя, чтобы противостоять на своём пути орде плотоядных монстров, рыщущих в суровых австралийских зарослях.-
Дата мировой премьеры: 19 сентября 2014
Продолжительность: 01:38:34
Качество видео: BDRip
Перевод: Двуголосый закадровый, любительский (DeadSno & den904)
Субтитры: Вшитые отключаемые
Язык субтитров: Английский
Видео: AVC/H.264, ~9868 kbps, 1920 х 1080, 23,976 fps
Аудио 1: Русский, AC3 5.1, 384 kbps, 48 kHz (DVO, DeadSno & den904)
Аудио 2: Английский, DTS 5.1, 1509 kbps, 48 kHz (Original)
Сэмпл: Скачать

Mediainfo:

Код:
Общее
Уникальный идентификатор : 244133127929627976392155615956842377796 (0xB7AA5484B02456AAB6D2570B7318F244)
Полное имя : D:\Films\Wyrmwood.2014.BDRip.1080p.mkv
Формат : Matroska
Версия формата : Version 2
Размер файла : 8,07 Гбайт
Продолжительность : 1 ч. 38 м.
Общий поток : 11,7 Мбит/сек
Дата кодирования : UTC 2015-04-02 14:20:55
Программа кодирования : mkvmerge v5.2.0 ('I can't explain') built on Dec 18 2011 18:12:03
Библиотека кодирования : libebml v1.2.3 + libmatroska v1.3.0
Видео
Идентификатор : 1
Формат : AVC
Формат/Информация : Advanced Video Codec
Профиль формата : [email protected]
Параметр CABAC формата : Да
Параметр ReFrames формата : 4 кадра
Идентификатор кодека : V_MPEG4/ISO/AVC
Продолжительность : 1 ч. 38 м.
Битрейт : 9868 Кбит/сек
Ширина : 1920 пикселей
Высота : 1080 пикселей
Соотношение сторон : 16:9
Режим частоты кадров : Постоянный
Частота кадров : 23,976 кадра/сек
Цветовое пространство : YUV
Субдискретизация насыщенности : 4:2:0
Битовая глубина : 8 бит
Тип развёртки : Прогрессивная
Бит/(Пиксели*Кадры) : 0.198
Размер потока : 6,61 Гбайт (82%)
Библиотека кодирования : x264 core 142 r2479 dd79a61
Настройки программы : cabac=1 / ref=4 / deblock=0:0:0 / analyse=0x3:0x113 / me=hex / subme=2 / psy=1 / psy_rd=1.00:0.00 / mixed_ref=0 / me_range=16 / chroma_me=1 / trellis=0 / 8x8dct=1 / cqm=0 / deadzone=21,11 / fast_pskip=1 / chroma_qp_offset=0 / threads=6 / lookahead_threads=2 / sliced_threads=0 / nr=0 / decimate=1 / interlaced=0 / bluray_compat=0 / constrained_intra=0 / bframes=4 / b_pyramid=2 / b_adapt=1 / b_bias=0 / direct=1 / weightb=0 / open_gop=0 / weightp=0 / keyint=240 / keyint_min=24 / scenecut=40 / intra_refresh=0 / rc_lookahead=10 / rc=2pass / mbtree=1 / bitrate=9868 / ratetol=1.0 / qcomp=0.60 / qpmin=0 / qpmax=69 / qpstep=4 / cplxblur=20.0 / qblur=0.5 / vbv_maxrate=25000 / vbv_bufsize=31250 / nal_hrd=none / filler=0 / ip_ratio=1.40 / aq=1:1.00
Язык : English
Default : Да
Forced : Нет
Основные цвета : BT.709
Характеристики трансфера : BT.709
Коэффициенты матрицы : BT.709
colour_range : Limited
Аудио #1
Идентификатор : 2
Формат : AC-3
Формат/Информация : Audio Coding 3
Расширение режима : CM (complete main)
Параметр Endianness формата : Big
Идентификатор кодека : A_AC3
Продолжительность : 1 ч. 38 м.
Вид битрейта : Постоянный
Битрейт : 384 Кбит/сек
Каналы : 6 каналов
Расположение каналов : Front: L C R, Side: L R, LFE
Частота : 48,0 КГц
Битовая глубина : 16 бит
Метод сжатия : С потерями
Задержка видео : -83 мс.
Размер потока : 271 Мбайт (3%)
Заголовок : DVO, DeadSno & den904
Язык : Russian
Default : Да
Forced : Нет
Аудио #2
Идентификатор : 3
Формат : DTS
Формат/Информация : Digital Theater Systems
Режим : 16
Параметр Endianness формата : Big
Идентификатор кодека : A_DTS
Продолжительность : 1 ч. 38 м.
Вид битрейта : Постоянный
Битрейт : 1509 Кбит/сек
Каналы : 6 каналов
Расположение каналов : Front: L C R, Side: L R, LFE
Частота : 48,0 КГц
Битовая глубина : 16 бит
Метод сжатия : С потерями
Задержка видео : -83 мс.
Размер потока : 1,04 Гбайт (13%)
Заголовок : Original
Язык : English
Default : Нет
Forced : Нет
Текст
Идентификатор : 4
Формат : UTF-8
Идентификатор кодека : S_TEXT/UTF8
Идентификатор кодека/Информация : UTF-8 Plain Text
Язык : English
Default : Нет
Forced : Нет
Меню
00:00:00.000 : :Chapter 1
00:14:59.190 : :Chapter 2
00:26:34.092 : :Chapter 3
00:39:25.154 : :Chapter 4
00:53:51.186 : :Chapter 5
01:07:38.137 : :Chapter 6
01:22:07.089 : :Chapter 7
01:34:51.102 : :Chapter 8
Скриншоты:
Яндекс.Метрика
Рейтинг@Mail.ru