[ Сегодня на трекере фрилич! Идет свободное скачивание без начисления Download ]

Каменская 6 [12 серий из 12] (Марат Ким, Егор Анашкин) [2011 г., детектив, криминал, DVDRip]

 

Создавать темы 02-Апр-2015 06:56

Каменская 6 [12 серий из 12]-- Год выпуска: 2011
Страна: Россия
Жанр: детектив, криминал
Продолжительность: 00:46
Режиссер: Марат Ким, Егор Анашкин
http://www.kinopoisk.ru/film/570059/
В ролях: Елена Яковлева, Сергей Никоненко, Сергей Гармаш, Дмитрий Нагиев, Андрей Ильин, Валерий Приёмыхов, Алексей Горбунов, Всеволод Шиловский, Андрей Панин, Борис Невзоров, Альгимантас Масюлис, Марина Могилевская, Анатолий Горячев, Алиса Богарт, Николай Чиндяйкин, Сергей Юшкевич, Алексей Шевченков, Владислав Галкин, Михаил Ефремов, Александр Балуев, Геннадий Назаров, Дмитрий Харатьян, Наталья Рогожкина, Александр Носик, Алексей Ошурков, Ярослав Бойко, Светлана Копылова, Александр Яцко, Алексей Маклаков, Михаил Горевой, Станислав Дужников, Илья Шакунов, Виктория Исакова, Егор Бероев, Александр Воробьёв, Линда Табагари, Владимир Стержаков
Описание: Анастасия Павловна - лучший аналитик Московского уголовного розыска. Ее острый ум в сочетании с необыкновенной интуицией и проницательностью позволяют ей с блеском разгадывать самые изощренные преступления, вычислять преступников по самым незначительным деталям их поведения, психологии и поступков. Каменская берется за неразрешимые дела и всегда доводит расследование до конца, даже если под угрозу поставлена ее собственная жизнь.
Качество: DVDRip
Формат: AVI
Видео кодек: DivX
Аудио кодек: AC3
Видео: 704x400 (1.76:1), 25 fps, DivX Codec 5.2.1 build 1328 ~1447 kbps avg, 0.20 bit/pixel
Аудио: 48 kHz, AC3 Dolby Digital, 3/2 (L,C,R,l,r) + LFE ch, ~448 kbps

МедиаИнфо

Общее
Полное имя : E:\Торренты\Kamenskaya\Kamenskaya.(6.sezon.12.seriy.iz.12)\Kamenskaya.(6.sezon.01.serija.iz.12).2011.DivX.DVDRip.avi
Формат : AVI
Формат/Информация : Audio Video Interleave
Размер файла : 600 Мбайт
Продолжительность : 44 м.
Общий поток : 1905 Кбит/сек
Программа кодирования : VirtualDubMod 1.5.10.2 (build 2540/release)
Библиотека кодирования : VirtualDubMod build 2540/release
Видео
Идентификатор : 0
Формат : MPEG-4 Visual
Параметр BVOP формата : Нет
Параметр QPel формата : Нет
Параметр GMC формата : Без точки перехода
Параметр матрицы формата : Default (H.263)
Идентификатор кодека : DX50
Идентификатор кодека/Подсказка : DivX 5
Продолжительность : 44 м.
Битрейт : 1448 Кбит/сек
Ширина : 704 пикселя
Высота : 400 пикселей
Соотношение сторон : 16:9
Частота кадров : 25,000 кадров/сек
Цветовое пространство : YUV
Субдискретизация насыщенности : 4:2:0
Битовая глубина : 8 бит
Тип развёртки : Прогрессивная
Метод сжатия : С потерями
Бит/(Пиксели*Кадры) : 0.206
Размер потока : 456 Мбайт (76%)
Библиотека кодирования : DivX 5.2.1 (WaffleDay) (UTC 2004-09-08)
Аудио
Идентификатор : 1
Формат : AC-3
Формат/Информация : Audio Coding 3
Расширение режима : CM (complete main)
Параметр Endianness формата : Big
Идентификатор кодека : 2000
Продолжительность : 44 м.
Вид битрейта : Постоянный
Битрейт : 448 Кбит/сек
Каналы : 6 каналов
Расположение каналов : Front: L C R, Side: L R, LFE
Частота : 48,0 КГц
Битовая глубина : 16 бит
Метод сжатия : С потерями
Размер потока : 141 Мбайт (24%)
Выравнивание : Разделение по промежуткам
Продолжительность промежутка : 40 мс. (1,00 видеокадр)
Время предзагрузки промежутка : 500 мс.
Скриншоты
Яндекс.Метрика
Рейтинг@Mail.ru