Каменская 4 [12 серий из 12] (Александр Аравин) [2005 г., детектив, DVDRip]

 

Создавать темы 02-Апр-2015 06:53

Каменская 4 [12 серий из 12]-- Год выпуска: 2005
Страна: Россия
Жанр: детектив
Продолжительность: 00:46
Режиссер: Александр Аравин
http://www.kinopoisk.ru/film/467504/
В ролях: Елена Яковлева, Сергей Никоненко, Сергей Гармаш, Дмитрий Нагиев, Андрей Ильин, Валерий Приёмыхов, Алексей Горбунов, Всеволод Шиловский, Андрей Панин, Борис Невзоров, Альгимантас Масюлис, Марина Могилевская, Анатолий Горячев, Алиса Богарт, Николай Чиндяйкин, Сергей Юшкевич, Алексей Шевченков, Владислав Галкин, Михаил Ефремов, Александр Балуев, Геннадий Назаров, Дмитрий Харатьян, Наталья Рогожкина, Александр Носик, Алексей Ошурков, Ярослав Бойко, Светлана Копылова, Александр Яцко, Алексей Маклаков, Михаил Горевой, Станислав Дужников, Илья Шакунов, Виктория Исакова, Егор Бероев, Александр Воробьёв, Линда Табагари, Владимир Стержаков
Описание: Анастасия Павловна - лучший аналитик Московского уголовного розыска. Ее острый ум в сочетании с необыкновенной интуицией и проницательностью позволяют ей с блеском разгадывать самые изощренные преступления, вычислять преступников по самым незначительным деталям их поведения, психологии и поступков. Каменская берется за неразрешимые дела и всегда доводит расследование до конца, даже если под угрозу поставлена ее собственная жизнь.
Качество: DVDRip
Формат: AVI
Видео кодек: XviD
Аудио кодек: AC3
Видео: 704x432 (1.63:1), 25 fps, XviD build 55 ~1447 kbps avg, 0.19 bit/pixel
Аудио: 48 kHz, AC3 Dolby Digital, 3/2 (L,C,R,l,r) + LFE ch, ~448 kbps

МедиаИнфо

Общее
Полное имя : E:\Торренты\Kamenskaya\Kamenskaya.(4.sezon.12.seriy.iz.12)\Kamenskaya.(4.sezon.01.serija.iz.12).2005.XviD.DVDRip.avi
Формат : AVI
Формат/Информация : Audio Video Interleave
Размер файла : 600 Мбайт
Продолжительность : 44 м.
Общий поток : 1902 Кбит/сек
Программа кодирования : VirtualDubMod 1.5.4.1 (build 2178/release)
Библиотека кодирования : VirtualDubMod build 2178/release
Видео
Идентификатор : 0
Формат : MPEG-4 Visual
Профиль формата : Advanced [email protected]
Параметр BVOP формата : 1
Параметр QPel формата : Нет
Параметр GMC формата : Без точки перехода
Параметр матрицы формата : Выборочная
Идентификатор кодека : XVID
Идентификатор кодека/Подсказка : XviD
Продолжительность : 44 м.
Битрейт : 1447 Кбит/сек
Ширина : 704 пикселя
Высота : 432 пикселя
Соотношение сторон : 16:10
Частота кадров : 25,000 кадров/сек
Цветовое пространство : YUV
Субдискретизация насыщенности : 4:2:0
Битовая глубина : 8 бит
Тип развёртки : Прогрессивная
Метод сжатия : С потерями
Бит/(Пиксели*Кадры) : 0.190
Размер потока : 457 Мбайт (76%)
Библиотека кодирования : XviD 1.3.0.dev55
Аудио
Идентификатор : 1
Формат : AC-3
Формат/Информация : Audio Coding 3
Расширение режима : CM (complete main)
Параметр Endianness формата : Big
Идентификатор кодека : 2000
Продолжительность : 44 м.
Вид битрейта : Постоянный
Битрейт : 448 Кбит/сек
Каналы : 6 каналов
Расположение каналов : Front: L C R, Side: L R, LFE
Частота : 48,0 КГц
Битовая глубина : 16 бит
Метод сжатия : С потерями
Размер потока : 141 Мбайт (24%)
Выравнивание : Разделение по промежуткам
Продолжительность промежутка : 96 мс. (2,40 видеокадра)
Время предзагрузки промежутка : 96 мс.
Язык : Russian
Скриншоты
Яндекс.Метрика
Рейтинг@Mail.ru