Каменская 3 [16 серий из 16] (Юрий Мороз) [2003 г., детектив, DVDRip]

 

Создавать темы 02-Апр-2015 06:51

Каменская 3 [16 серий из 16]-- Год выпуска: 2003
Страна: Россия
Жанр: детектив
Продолжительность: 00:46
Режиссер: Юрий Мороз
http://www.kinopoisk.ru/film/425071/
В ролях: Елена Яковлева, Сергей Никоненко, Сергей Гармаш, Дмитрий Нагиев, Андрей Ильин, Валерий Приёмыхов, Алексей Горбунов, Всеволод Шиловский, Андрей Панин, Борис Невзоров, Альгимантас Масюлис, Марина Могилевская, Анатолий Горячев, Алиса Богарт, Николай Чиндяйкин, Сергей Юшкевич, Алексей Шевченков, Владислав Галкин, Михаил Ефремов, Александр Балуев, Геннадий Назаров, Дмитрий Харатьян, Наталья Рогожкина, Александр Носик, Алексей Ошурков, Ярослав Бойко, Светлана Копылова, Александр Яцко, Алексей Маклаков, Михаил Горевой, Станислав Дужников, Илья Шакунов, Виктория Исакова, Егор Бероев, Александр Воробьёв, Линда Табагари, Владимир Стержаков
Описание: Анастасия Павловна - лучший аналитик Московского уголовного розыска. Ее острый ум в сочетании с необыкновенной интуицией и проницательностью позволяют ей с блеском разгадывать самые изощренные преступления, вычислять преступников по самым незначительным деталям их поведения, психологии и поступков. Каменская берется за неразрешимые дела и всегда доводит расследование до конца, даже если под угрозу поставлена ее собственная жизнь.
Качество: DVDRip
Формат: AVI
Видео кодек: DivX
Аудио кодек: MPEG Layer 3
Видео: 640x416 (1.54:1), 25 fps, DivX Codec 5.05 ~1590 kbps avg, 0.24 bit/pixel
Аудио: 48 kHz, MPEG Layer 3, 1 ch, ~96.00 kbps avg

МедиаИнфо

Общее
Полное имя : E:\Торренты\Kamenskaya\Kamenskaya.(3.sezon.16.seriy.iz.16)\Kamenskaya.(3.sezon.01.serija.iz.16).2003.DivX.DVDRip.avi
Формат : AVI
Формат/Информация : Audio Video Interleave
Размер файла : 527 Мбайт
Продолжительность : 43 м.
Общий поток : 1696 Кбит/сек
Библиотека кодирования : VirtualDub build 15654/release
Видео
Идентификатор : 0
Формат : MPEG-4 Visual
Параметр BVOP формата : 1
Параметр QPel формата : Нет
Параметр GMC формата : 2 точки перехода
Параметр матрицы формата : Default (H.263)
Режим смешивания : Сжатый битовый поток
Идентификатор кодека : DX50
Идентификатор кодека/Подсказка : DivX 5
Продолжительность : 43 м.
Битрейт : 1590 Кбит/сек
Ширина : 640 пикселей
Высота : 416 пикселей
Соотношение сторон : 3:2
Частота кадров : 25,000 кадров/сек
Цветовое пространство : YUV
Субдискретизация насыщенности : 4:2:0
Битовая глубина : 8 бит
Тип развёртки : Прогрессивная
Метод сжатия : С потерями
Бит/(Пиксели*Кадры) : 0.239
Размер потока : 494 Мбайт (94%)
Библиотека кодирования : DivX 5.0.5 (UTC 2003-04-24)
Аудио
Идентификатор : 1
Формат : MPEG Audio
Версия формата : Version 1
Профиль формата : Layer 3
Идентификатор кодека : 55
Идентификатор кодека/Подсказка : MP3
Продолжительность : 43 м.
Вид битрейта : Постоянный
Битрейт : 96,0 Кбит/сек
Каналы : 1 канал
Частота : 48,0 КГц
Метод сжатия : С потерями
Размер потока : 29,8 Мбайт (6%)
Выравнивание : Разделение по промежуткам
Продолжительность промежутка : 40 мс. (1,00 видеокадр)
Время предзагрузки промежутка : 500 мс.
Библиотека кодирования : LAME3.92
Настройки программы : -m m -V 4 -q 2 -lowpass 18.6 -b 96
Скриншоты
Яндекс.Метрика
Рейтинг@Mail.ru