[ Сегодня на трекере фрилич! Идет свободное скачивание без начисления Download ]

Каменская 1 [16 серий из 16] (Юрий Мороз) [1999 г., детектив, DVDRip]

 

Создавать темы 02-Апр-2015 06:47

Каменская 1 [16 серий из 16]-- Год выпуска: 1999
Страна: Россия, "Рекун ТВ"
Жанр: детектив
Продолжительность: 00:46
Режиссер: Юрий Мороз
http://www.kinopoisk.ru/film/94331
В ролях: Елена Яковлева, Сергей Никоненко, Сергей Гармаш, Дмитрий Нагиев, Андрей Ильин, Валерий Приёмыхов, Алексей Горбунов, Всеволод Шиловский, Андрей Панин, Борис Невзоров, Альгимантас Масюлис, Марина Могилевская, Анатолий Горячев, Алиса Богарт, Николай Чиндяйкин, Сергей Юшкевич, Алексей Шевченков, Владислав Галкин, Михаил Ефремов, Александр Балуев, Геннадий Назаров, Дмитрий Харатьян, Наталья Рогожкина, Александр Носик, Алексей Ошурков, Ярослав Бойко, Светлана Копылова, Александр Яцко, Алексей Маклаков, Михаил Горевой, Станислав Дужников, Илья Шакунов, Виктория Исакова, Егор Бероев, Александр Воробьёв, Линда Табагари, Владимир Стержаков
Описание: Анастасия Павловна - лучший аналитик Московского уголовного розыска. Ее острый ум в сочетании с необыкновенной интуицией и проницательностью позволяют ей с блеском разгадывать самые изощренные преступления, вычислять преступников по самым незначительным деталям их поведения, психологии и поступков. Каменская берется за неразрешимые дела и всегда доводит расследование до конца, даже если под угрозу поставлена ее собственная жизнь.
Качество: DVDRip
Формат: AVI
Видео кодек: XviD
Аудио кодек: AC3
Видео: 720x432 (1.67:1), 25 fps, XviD build 47 ~1686 kbps avg, 0.22 bit/pixel
Аудио: 48 kHz, AC3 Dolby Digital, 2/0 (L,R) ch, ~192 kbps

МедиаИнфо

Общее
Полное имя : E:\Торренты\Kamenskaya\Kamenskaya.(1.sezon.16.seriy.iz.16)\Kamenskaya.(1.sezon.01.serija.iz.16).1999.XivD.DVDRip.avi
Формат : AVI
Формат/Информация : Audio Video Interleave
Размер файла : 700 Мбайт
Продолжительность : 51 м.
Общий поток : 1888 Кбит/сек
Библиотека кодирования : VirtualDub build 30091/release
Видео
Идентификатор : 0
Формат : MPEG-4 Visual
Профиль формата : Advanced [email protected]
Параметр BVOP формата : 1
Параметр QPel формата : Нет
Параметр GMC формата : Без точки перехода
Параметр матрицы формата : Выборочная
Идентификатор кодека : XVID
Идентификатор кодека/Подсказка : XviD
Продолжительность : 51 м.
Битрейт : 1686 Кбит/сек
Ширина : 720 пикселей
Высота : 432 пикселя
Соотношение сторон : 1,667
Частота кадров : 25,000 кадров/сек
Цветовое пространство : YUV
Субдискретизация насыщенности : 4:2:0
Битовая глубина : 8 бит
Тип развёртки : Прогрессивная
Метод сжатия : С потерями
Бит/(Пиксели*Кадры) : 0.217
Размер потока : 625 Мбайт (89%)
Библиотека кодирования : XviD 1.2.0.dev47 (UTC 2006-11-01)
Аудио
Идентификатор : 1
Формат : AC-3
Формат/Информация : Audio Coding 3
Расширение режима : CM (complete main)
Параметр Endianness формата : Big
Идентификатор кодека : 2000
Продолжительность : 51 м.
Вид битрейта : Постоянный
Битрейт : 192 Кбит/сек
Каналы : 2 канала
Расположение каналов : Front: L R
Частота : 48,0 КГц
Битовая глубина : 16 бит
Метод сжатия : С потерями
Задержка видео : 16 мс.
Размер потока : 71,2 Мбайт (10%)
Выравнивание : Разделение по промежуткам
Продолжительность промежутка : 40 мс. (1,00 видеокадр)
Время предзагрузки промежутка : 500 мс.
Скриншоты
Яндекс.Метрика
Рейтинг@Mail.ru