[ Сегодня на трекере фрилич! Идет свободное скачивание без начисления Download ]

Заложница 3 / Taken 3 (2014) BDRip [Line] [EXTENDED]

 

Создавать темы 02-Апр-2015 00:25

--Заложница 3 / Taken 3 (2014) BDRip [Line] [EXTENDED]-- Производство: Франция, Canal+, Ciné+, EuropaCorp
Жанр: Боевик, Триллер
Режиссер: Оливье Мегатон
Актеры: Лиам Нисон, Мэгги Грэйс, Форест Уитакер, Фамке Янссен, Джонни Уэстон, Дюгрей Скотт, Джон Грайз, Лиленд Орсер, Ал Сапиенца, Эндрю Ховард
Описание фильма:
Жизнь бывшего правительственного агента Брайана Миллса рушится, когда его обвиняют в убийстве, которого он не совершал. Преследуемый опытным инспектором полиции, Миллс пытается отследить настоящего убийцу…
Перевод: Дублированный (Чистый звук)
Язык субтитров: Русский (на места без перевода), Английский (форс.)-
Дата мировой премьеры: 16 декабря 2014
Дата российской премьеры: 15 января 2015, «Двадцатый Век Фокс СНГ»
Дата выхода DVD релиза: 23 апреля 2015, «Двадцатый Век Фокс СНГ»,-Продолжительность: 01:55:18
Качество видео: BDRip (профиль LQ)
Видео: MPEG-4 AVC/H.264, 1280x536 (2.40:1), 5270 kbps, 23,976 fps, 0,320 bpp
Аудио #1: Русский: AC-3, 48.0 KHz, 2 ch, 384 Kbps, CBR
Аудио #2: Английский: DTS, 5.1, 48 kHz, 1510 kbps, 24 bit

MediaInfo:

Общее
Полное имя : \Заложница 3_Taken 3 (2014) BDRip.Line.720p.[EXTENDED].mkv
Формат : Matroska
Версия формата : Version 2
Размер файла : 5,77 Гбайт
Продолжительность : 1 ч. 55 м.
Общий поток : 7162 Кбит/сек
Название фильма : Заложница 3_Taken 3 (2014) BDRip.Line.720p.[EXTENDED]
Дата кодирования : UTC 2015-04-01 16:57:55
Программа кодирования : mkvmerge v7.7.0 ('Six Voices') 64bit built on Feb 28 2015 23:39:33
Библиотека кодирования : libebml v1.3.1 + libmatroska v1.4.2
Видео
Идентификатор : 1
Формат : AVC
Формат/Информация : Advanced Video Codec
Профиль формата : [email protected]
Параметр CABAC формата : Да
Параметр ReFrames формата : 5 кадров
Идентификатор кодека : V_MPEG4/ISO/AVC
Продолжительность : 1 ч. 55 м.
Битрейт : 5270 Кбит/сек
Ширина : 1280 пикселей
Высота : 536 пикселей
Соотношение сторон : 2,40:1
Режим частоты кадров : Постоянный
Частота кадров : 23,976 кадра/сек
Цветовое пространство : YUV
Субдискретизация насыщенности : 4:2:0
Битовая глубина : 8 бит
Тип развёртки : Прогрессивная
Бит/(Пиксели*Кадры) : 0.320
Размер потока : 4,13 Гбайт (72%)
Заголовок : Заложница 3_Taken 3 (2014) BDRip.Line.720p.[EXTENDED]
Библиотека кодирования : x264 core 144 r2525 40bb568
Настройки программы : cabac=1 / ref=5 / deblock=1:0:0 / analyse=0x3:0x133 / me=umh / subme=7 / psy=1 / psy_rd=1.00:0.00 / mixed_ref=1 / me_range=16 / chroma_me=1 / trellis=1 / 8x8dct=1 / cqm=0 / deadzone=21,11 / fast_pskip=0 / chroma_qp_offset=-2 / threads=60 / lookahead_threads=4 / sliced_threads=0 / nr=0 / decimate=1 / interlaced=0 / bluray_compat=0 / constrained_intra=0 / bframes=3 / b_pyramid=2 / b_adapt=1 / b_bias=0 / direct=1 / weightb=1 / open_gop=0 / weightp=2 / keyint=250 / keyint_min=23 / scenecut=40 / intra_refresh=0 / rc_lookahead=40 / rc=2pass / mbtree=1 / bitrate=5270 / ratetol=1.0 / qcomp=0.60 / qpmin=0 / qpmax=69 / qpstep=4 / cplxblur=20.0 / qblur=0.5 / ip_ratio=1.40 / aq=1:1.00
Язык : English
Default : Да
Forced : Нет
Аудио #1
Идентификатор : 2
Формат : AC-3
Формат/Информация : Audio Coding 3
Расширение режима : CM (complete main)
Параметр Endianness формата : Big
Идентификатор кодека : A_AC3
Продолжительность : 1 ч. 55 м.
Вид битрейта : Постоянный
Битрейт : 384 Кбит/сек
Каналы : 2 канала
Расположение каналов : Front: L R
Частота : 48,0 КГц
Битовая глубина : 16 бит
Метод сжатия : С потерями
Размер потока : 317 Мбайт (5%)
Заголовок : Дубляж (Line)
Язык : Russian
Default : Да
Forced : Да
Аудио #2
Идентификатор : 3
Формат : DTS
Формат/Информация : Digital Theater Systems
Режим : 16
Параметр Endianness формата : Big
Идентификатор кодека : A_DTS
Продолжительность : 1 ч. 55 м.
Вид битрейта : Постоянный
Битрейт : 1509 Кбит/сек
Каналы : 6 каналов
Расположение каналов : Front: L C R, Side: L R, LFE
Частота : 48,0 КГц
Битовая глубина : 24 бит
Метод сжатия : С потерями
Размер потока : 1,22 Гбайт (21%)
Язык : English
Default : Нет
Forced : Нет
Текст #1
Идентификатор : 4
Формат : UTF-8
Идентификатор кодека : S_TEXT/UTF8
Идентификатор кодека/Информация : UTF-8 Plain Text
Заголовок : Форс. (на места без перевода)
Язык : Russian
Default : Да
Forced : Да
Текст #2
Идентификатор : 5
Формат : UTF-8
Идентификатор кодека : S_TEXT/UTF8
Идентификатор кодека/Информация : UTF-8 Plain Text
Заголовок : English-Forced
Язык : English
Default : Нет
Forced : Нет
Меню
00:00:00.000 : en:00:00:00.000
00:04:18.091 : en:00:04:18.091
00:10:12.820 : en:00:10:12.820
00:13:20.466 : en:00:13:20.466
00:15:44.986 : en:00:15:44.986
00:18:25.354 : en:00:18:25.354
00:23:18.814 : en:00:23:18.814
00:25:49.256 : en:00:25:49.256
00:27:34.861 : en:00:27:34.861
00:30:21.403 : en:00:30:21.403
00:33:01.146 : en:00:33:01.146
00:36:00.283 : en:00:36:00.283
00:38:17.795 : en:00:38:17.795
00:43:08.419 : en:00:43:08.419
00:46:46.428 : en:00:46:46.428
00:50:21.143 : en:00:50:21.143
00:55:00.338 : en:00:55:00.338
00:59:07.293 : en:00:59:07.293
01:02:49.641 : en:01:02:49.641
01:05:56.953 : en:01:05:56.953
01:07:13.863 : en:01:07:13.863
01:09:59.028 : en:01:09:59.028
01:14:26.086 : en:01:14:26.086
01:18:10.185 : en:01:18:10.185
01:22:19.518 : en:01:22:19.518
01:25:26.162 : en:01:25:26.162
01:29:38.206 : en:01:29:38.206
01:33:24.473 : en:01:33:24.473
01:37:07.571 : en:01:37:07.571
01:40:37.656 : en:01:40:37.656
01:46:48.443 : en:01:46:48.443
01:49:42.993 : en:01:49:42.993

Знаете ли Вы, что...

Все сцены драк Лиам Нисон исполнил самостоятельно.
В фильме «Заложница» (2007) Брайан Миллс говорит похитителям по телефону, что именно он будет делать, и с чем они столкнулись, на что они отвечают: «Удачи». А в фильме «Заложница 3» (2014) наоборот – Франк Доцлер говорит Брайану, что именно он будет делать, и с чем столкнулся Брайан, на что Брайан отвечает: «Удачи».
В фильме на 33-й минуте в полицейском профайле Ким указан рост 6`4» (193 см), на самом деле рост актрисы Мэгги Грэйс составляет всего 5`9» (175 см).
Скриншоты:
Яндекс.Метрика
Рейтинг@Mail.ru