Исход: Цари и боги / Exodus: Gods and Kings (2014) BDRemux [1080p]

 

Создавать темы 01-Апр-2015 23:59

-Исход: Цари и боги / Exodus: Gods and Kings (2014) BDRemux [1080p]- Производство: Chernin Entertainment, Scott Free Productions, Babieka, Volcano Films / Великобритания, США, Испания
Жанр: Боевик, Драма, Приключения
Режиссер: Ридли Скотт
Актеры: Кристиан Бэйл, Джоэл Эдгертон, Джон Туртурро, Аарон Пол, Бен Мендельсон, Мария Вальверде, Сигурни Уивер, Бен Кингсли, Хиам Аббасс, Исаак Эндрюс
Описание фильма:
Ветхозаветная история о великом пророке Моисее и освобождении еврейского народа из египетского плена. Моисей появился на свет в те времена, когда фараон приказал убивать всех новорожденных мальчиков еврейского происхождения. Чтобы спасти его, мать положила малыша в корзину из тростника и отправила вниз по Нилу.
Ребенка нашла дочь фараона, которая усыновила его и растила рядом с Рамсесом — будущим фараоном. Много лет спустя, став мужчиной, Моисей бежит из Египта, а затем возвращается туда по велению Господа, чтобы избавить свой народ от оков рабства…-
Дата мировой премьеры: 3 декабря 2014
Дата российской премьеры: 1 января 2015, «Двадцатый Век Фокс СНГ»
Дата выхода DVD/Blu-ray релиза: 9 апреля 2015, «Двадцатый Век Фокс СНГ»
Продолжительность: 02:30:20
Качество видео: BDRemux
Перевод: Дублированный, одноголосный закадровый
Субтитры: Вшитые отключаемые
Язык субтитров: Русский (Full, Forced), украинский (Full, Forced), английский (Full, SDH, Commentary)
Видео: MPEG-4 AVC/H.264 / 1920x1080 / 26922 kbps / 23,976 fps
Аудио 1: DTS 5.1 / 768 kbps | Русский дубляж
Аудио 2: AC3 5.1 / 640 kbps | Русский дубляж
Аудио 3: DTS 5.1 / 1509 kbps | Русский, одноголосный закадровый | Есарев
Аудио 4: AC3 5.1 / 448 kbps | Украинский дубляж
Аудио 5: DTS-HD MA 7.1 / 5506 kbps | Английский, оригинальная озвучка
Аудио 6: AC3 5.1 / 448 kbps | Descriptive
Аудио 7: AC3 2.0 / 224 kbps | Audio Commentary by Director/Producer Ridley Scott and Co-Screenwriter

MediaInfo:

Полное имя : C:\!\Исход_Цари.И.Боги-Exodus_Gods.And.Kings.(2014).BDRemux.[1080p].mkv
Формат : Matroska
Версия формата : Version 4 / Version 2
Размер файла : 38,2 Гбайт
Продолжительность : 2 ч. 30 м.
Режим общего битрейта : Переменный
Общий поток : 36,3 Мбит/сек
Название фильма : Исход: Цари и боги / Exodus: Gods and Kings (2014) | nnm-club | y607ce
Дата кодирования : UTC 2015-04-01 21:19:30
Программа кодирования : mkvmerge v7.8.0 ('River Man') 64bit built on Mar 27 2015 16:31:37
Библиотека кодирования : libebml v1.3.1 + libmatroska v1.4.2
Attachements : cover.jpg / chapters.txt
DURATION : 02:29:03.985000000
NUMBER_OF_FRAMES : 12
NUMBER_OF_BYTES : 554
_STATISTICS_WRITING_APP : mkvmerge v7.8.0 ('River Man') 64bit built on Mar 27 2015 16:31:37
_STATISTICS_WRITING_DATE_UTC : 2015-04-01 21:19:30
_STATISTICS_TAGS : BPS DURATION NUMBER_OF_FRAMES NUMBER_OF_BYTES
Видео
Идентификатор : 1
Формат : AVC
Формат/Информация : Advanced Video Codec
Профиль формата : [email protected]
Параметр CABAC формата : Да
Параметр ReFrames формата : 4 кадра
Идентификатор кодека : V_MPEG4/ISO/AVC
Продолжительность : 2 ч. 30 м.
Вид битрейта : Переменный
Максимальный битрейт : 34,9 Мбит/сек
Ширина : 1920 пикселей
Высота : 1080 пикселей
Соотношение сторон : 16:9
Режим частоты кадров : Постоянный
Частота кадров : 23,976 кадра/сек
Цветовое пространство : YUV
Субдискретизация насыщенности : 4:2:0
Битовая глубина : 8 бит
Тип развёртки : Прогрессивная
Заголовок : Исход: Цари и боги / Exodus: Gods and Kings (2014) BDRemux [H.264/1080p]
Язык : English
Default : Да
Forced : Да
Аудио #1
Идентификатор : 2
Формат : DTS
Формат/Информация : Digital Theater Systems
Режим : 16
Параметр Endianness формата : Big
Идентификатор кодека : A_DTS
Продолжительность : 2 ч. 30 м.
Вид битрейта : Постоянный
Битрейт : 768 Кбит/сек
Каналы : 6 каналов
Расположение каналов : Front: L C R, Side: L R, LFE
Частота : 48,0 КГц
Битовая глубина : 24 бит
Метод сжатия : С потерями
Размер потока : 826 Мбайт (2%)
Заголовок : DTS 5.1 768 kbps - Dub
Язык : Russian
Default : Да
Forced : Да
Аудио #2
Идентификатор : 3
Формат : AC-3
Формат/Информация : Audio Coding 3
Расширение режима : CM (complete main)
Параметр Endianness формата : Big
Идентификатор кодека : A_AC3
Продолжительность : 2 ч. 30 м.
Вид битрейта : Постоянный
Битрейт : 640 Кбит/сек
Каналы : 6 каналов
Расположение каналов : Front: L C R, Side: L R, LFE
Частота : 48,0 КГц
Битовая глубина : 16 бит
Метод сжатия : С потерями
Размер потока : 688 Мбайт (2%)
Заголовок : AC3 5.1 640 kbps - Dub
Язык : Russian
Default : Нет
Forced : Нет
Аудио #3
Идентификатор : 4
Формат : DTS
Формат/Информация : Digital Theater Systems
Режим : 16
Параметр Endianness формата : Big
Идентификатор кодека : A_DTS
Продолжительность : 2 ч. 30 м.
Вид битрейта : Постоянный
Битрейт : 1509 Кбит/сек
Каналы : 6 каналов
Расположение каналов : Front: L C R, Side: L R, LFE
Частота : 48,0 КГц
Битовая глубина : 24 бит
Метод сжатия : С потерями
Размер потока : 1,58 Гбайт (4%)
Заголовок : DTS 5.1 1509 kbps - Д.Есарев
Язык : Russian
Default : Нет
Forced : Нет
Аудио #4
Идентификатор : 5
Формат : AC-3
Формат/Информация : Audio Coding 3
Расширение режима : CM (complete main)
Параметр Endianness формата : Big
Идентификатор кодека : A_AC3
Продолжительность : 2 ч. 30 м.
Вид битрейта : Постоянный
Битрейт : 448 Кбит/сек
Каналы : 6 каналов
Расположение каналов : Front: L C R, Side: L R, LFE
Частота : 48,0 КГц
Битовая глубина : 16 бит
Метод сжатия : С потерями
Размер потока : 482 Мбайт (1%)
Заголовок : AC3 5.1 448 kbps - Dub
Язык : Ukrainian
Default : Нет
Forced : Нет
Аудио #5
Идентификатор : 6
Формат : DTS
Формат/Информация : Digital Theater Systems
Профиль формата : MA / Core
Режим : 16
Параметр Endianness формата : Big
Идентификатор кодека : A_DTS
Продолжительность : 2 ч. 30 м.
Вид битрейта : Переменный
Битрейт : Неизвестно / 1509 Кбит/сек
Каналы : 8 каналов / 6 каналов
Расположение каналов : Front: L C R, Side: L R, Back: L R, LFE / Front: L C R, Side: L R, LFE
Частота : 48,0 КГц
Битовая глубина : 24 бит
Метод сжатия : Без потерь / Lossy
Заголовок : DTS-HD MA 7.1 5506 kbps - Original
Язык : English
Default : Нет
Forced : Нет
Аудио #6
Идентификатор : 7
Формат : AC-3
Формат/Информация : Audio Coding 3
Расширение режима : CM (complete main)
Параметр Endianness формата : Big
Идентификатор кодека : A_AC3
Продолжительность : 2 ч. 30 м.
Вид битрейта : Постоянный
Битрейт : 448 Кбит/сек
Каналы : 6 каналов
Расположение каналов : Front: L C R, Side: L R, LFE
Частота : 48,0 КГц
Битовая глубина : 16 бит
Метод сжатия : С потерями
Размер потока : 482 Мбайт (1%)
Заголовок : AC3 5.1 448 kbps - Descriptive
Язык : English
Default : Нет
Forced : Нет
Аудио #7
Идентификатор : 8
Формат : AC-3
Формат/Информация : Audio Coding 3
Расширение режима : CM (complete main)
Параметр Endianness формата : Big
Идентификатор кодека : A_AC3
Продолжительность : 2 ч. 30 м.
Вид битрейта : Постоянный
Битрейт : 224 Кбит/сек
Каналы : 2 канала
Расположение каналов : Front: L R
Частота : 48,0 КГц
Битовая глубина : 16 бит
Метод сжатия : С потерями
Размер потока : 241 Мбайт (1%)
Заголовок : AC3 2.0 224 kbps - Commentary
Язык : English
Default : Нет
Forced : Нет
Текст #1
Идентификатор : 9
Формат : UTF-8
Идентификатор кодека : S_TEXT/UTF8
Идентификатор кодека/Информация : UTF-8 Plain Text
Заголовок : Forced
Язык : Russian
Default : Да
Forced : Да
Текст #2
Идентификатор : 10
Формат : UTF-8
Идентификатор кодека : S_TEXT/UTF8
Идентификатор кодека/Информация : UTF-8 Plain Text
Заголовок : Full
Язык : Russian
Default : Нет
Forced : Нет
Текст #3
Идентификатор : 11
Формат : UTF-8
Идентификатор кодека : S_TEXT/UTF8
Идентификатор кодека/Информация : UTF-8 Plain Text
Заголовок : Forced
Язык : Ukrainian
Default : Нет
Forced : Нет
Текст #4
Идентификатор : 12
Формат : UTF-8
Идентификатор кодека : S_TEXT/UTF8
Идентификатор кодека/Информация : UTF-8 Plain Text
Заголовок : Full
Язык : Ukrainian
Default : Нет
Forced : Нет
Текст #5
Идентификатор : 13
Формат : UTF-8
Идентификатор кодека : S_TEXT/UTF8
Идентификатор кодека/Информация : UTF-8 Plain Text
Заголовок : Full
Язык : English
Default : Нет
Forced : Нет
Текст #6
Идентификатор : 14
Формат : UTF-8
Идентификатор кодека : S_TEXT/UTF8
Идентификатор кодека/Информация : UTF-8 Plain Text
Заголовок : SDH
Язык : English
Default : Нет
Forced : Нет
Текст #7
Идентификатор : 15
Формат : UTF-8
Идентификатор кодека : S_TEXT/UTF8
Идентификатор кодека/Информация : UTF-8 Plain Text
Заголовок : Commentary
Язык : English
Default : Нет
Forced : Нет
Меню
00:00:00.000 : en:00:00:00.000
00:03:55.401 : en:00:03:55.401
00:06:51.994 : en:00:06:51.994
00:11:47.706 : en:00:11:47.706
00:14:29.451 : en:00:14:29.451
00:18:37.657 : en:00:18:37.657
00:22:15.834 : en:00:22:15.834
00:26:51.151 : en:00:26:51.151
00:30:31.287 : en:00:30:31.287
00:36:41.364 : en:00:36:41.364
00:40:48.320 : en:00:40:48.320
00:44:49.936 : en:00:44:49.936
00:48:47.798 : en:00:48:47.798
00:51:16.447 : en:00:51:16.447
00:54:22.217 : en:00:54:22.217
00:57:32.657 : en:00:57:32.657
01:00:31.168 : en:01:00:31.168
01:04:41.543 : en:01:04:41.543
01:06:49.045 : en:01:06:49.045
01:11:01.881 : en:01:11:01.881
01:16:53.692 : en:01:16:53.692
01:21:18.038 : en:01:21:18.038
01:24:30.355 : en:01:24:30.355
01:28:08.533 : en:01:28:08.533
01:30:54.157 : en:01:30:54.157
01:34:14.564 : en:01:34:14.564
01:37:20.542 : en:01:37:20.542
01:39:20.203 : en:01:39:20.203
01:42:40.319 : en:01:42:40.319
01:46:50.069 : en:01:46:50.069
01:49:02.661 : en:01:49:02.661
01:52:18.314 : en:01:52:18.314
01:57:29.876 : en:01:57:29.876
02:00:23.841 : en:02:00:23.841
02:05:41.324 : en:02:05:41.324
02:07:31.268 : en:02:07:31.268
02:13:38.467 : en:02:13:38.467
02:16:21.881 : en:02:16:21.881
02:19:39.995 : en:02:19:39.995
02:23:19.799 : en:02:23:19.799
Скриншоты:
Яндекс.Метрика
Рейтинг@Mail.ru