[ Сегодня на трекере фрилич! Идет свободное скачивание без начисления Download ]

Кон-Тики / Kon-Tiki (Хоаким Роннинг, Эспен Сандберг / Joachim Roenning,Espen Sandberg) [2012 г., Боевик, драма, приключения, биография, история, DVDRip] Dub [Лицензия]

 

Создавать темы 27-Ноя-2013 02:59

-Кон-Тики / Kon-Tiki-- Производство: Великобритания, Норвегия, Дания / Recorded Picture Company (RPC), Nordisk Film Production, DCM Productions
Год выпуска: 2012 г.
Жанр: Боевик, драма, приключения, биография, история
Продолжительность: 01:49:12
Мировая премьера: 18 августа 2012
Российская премьера: 18 апреля 2013, «Люксор»
Дата выхода DVD: 27 мая 2013, «Новый Диск»
Дата выхода Blu-Ray: 27 мая 2013, «Новый Диск»
Перевод: Профессиональный (полное дублирование) [Лицензия]
Режиссер: Хоаким Роннинг, Эспен Сандберг / Joachim Roenning,Espen Sandberg-В ролях: Пал Сверре Валхейм Хэйген, Андерс Баасмо Кристиансен, Густаф Скарсгард, Одд Магнус Уильямсон, Тобиас Зантелман, Якоб Офтебро, Агнес Киттелсен, Томас Арнольд, Йорген Бертаге, Элинор Бурк, Мануэль Коши, Сэм Чэпман, Стефан Кронуолл, Катинка Эгрес, Йен Кнауэр, Оле Слетнер, Ричард Триндер-Описание: Приключенческая картина, в основе которой лежит подвиг всемирно известного путешественника Тура Хейердала, совершившего в 1947 году эпическую экспедицию — пересечение Тихого океана на маленьком шатком плотике Кон-Тики. Гигантские киты, схватки с голодными акулами, грозовой шторм, раздирающий ветер, битва за жизнь посреди бушующей стихии…. Героям предстоит проявить немалую силу и трудолюбие, чтобы этот день не стал последним. Это невероятное путешествие навсегда изменит людей, которые рискнули в него отправиться.
Качество: DVDRip
Видео: XviD, 1451 Кбит/с, 720x304, 0.265 бит/(Пиксели*Кадры)
Аудио: 48,0 КГц, АС3, 6 ch, 448 Кбит/с-

Media Info

Формат : AVI
Формат/Информация : Audio Video Interleave
Размер файла : 1,46 Гбайт
Продолжительность : 1 ч. 49 м.
Общий поток : 1909 Кбит/сек
Название фильма : Kon_Tiki.2012.DVDRip
Программа кодирования : VirtualDubMod 1.5.10.3 | www.virtualdub-fr.org || (build 2550/release)
Видео
Идентификатор : 0
Формат : MPEG-4 Visual
Профиль формата : Advanced [email protected]
Параметр BVOP формата : 1
Параметр QPel формата : Нет
Параметр GMC формата : Без точки перехода
Параметр матрицы формата : Выборочная
Идентификатор кодека : XVID
Идентификатор кодека/Подсказка : XviD
Продолжительность : 1 ч. 49 м.
Битрейт : 1451 Кбит/сек
Ширина : 720 пикселей
Высота : 304 пикселя
Соотношение сторон : 2,35:1
Частота кадров : 25,000 кадров/сек
Цветовое пространство : YUV
Субдискретизация насыщенности : 4:2:0
Битовая глубина : 8 бит
Тип развёртки : Прогрессивная
Метод сжатия : С потерями
Бит/(Пиксели*Кадры) : 0.265
Размер потока : 1,11 Гбайт (76%)
Библиотека кодирования : XviD 1.2.1 (UTC 2008-12-04)
Аудио
Идентификатор : 1
Формат : AC-3
Формат/Информация : Audio Coding 3
Расширение режима : CM (complete main)
Параметр Endianness формата : Big
Идентификатор кодека : 2000
Продолжительность : 1 ч. 49 м.
Вид битрейта : Постоянный
Битрейт : 448 Кбит/сек
Каналы : 6 каналов
Расположение каналов : Front: L C R, Side: L R, LFE
Частота : 48,0 КГц
Битовая глубина : 16 бит
Метод сжатия : С потерями
Размер потока : 350 Мбайт (23%)
Выравнивание : Разделение по промежуткам
Продолжительность промежутка : 40 мс. (1,00 видеокадр)
Время предзагрузки промежутка : 500 мс.


Последний раз редактировалось: ksd66 (2013-11-27 15:45), всего редактировалось 1 раз

Создавать темы 27-Ноя-2013 16:02 (спустя 13 часов)

Яндекс.Метрика
Рейтинг@Mail.ru