[ Сегодня на трекере фрилич! Идет свободное скачивание без начисления Download ]

Миллион для чайников / The Brass Teapot (Рамаа Мосли / Ramaa Mosley) [2012 г., фэнтези, триллер, комедия, BDRip] MVO [Лицензия] + Sub (Rus, Eng)

 

Создавать темы 27-Ноя-2013 02:47

-Миллион для чайников / The Brass Teapot-«Всё, что не убьёт тебя, сделает богаче»- Производство: США / Atlantic Pictures (II), Laundry Films...
Год выпуска: 2012 г.
Жанр: фэнтези, триллер, комедия
Продолжительность: 01:41:29-Мировая премьера: 8 сентября 2012
Российская премьера: 4 апреля 2013, «Top Film Distribution»
Дата выхода DVD: 27 июня 2013, «New Dream media», «Новый Диск»-Перевод: Профессиональный (многоголосый, закадровый) [Лицензия]
Оригинальный аудиопоток: нет
Cубтитры: русские, английские
Режиссер: Рамаа Мосли / Ramaa Mosley-В ролях: Джуно Темпл, Майкл Ангарано, Алексис Бледел, Билли Магнуссен, Алиа Шокат, Бобби Мойнихэн мл., Стив Парк,Бен Раппапорт, Люси Уолтерс, Джек МакБрайер...-Описание: Признайтесь, каждому бы хотелось иметь волшебный чайник под кроватью, который выдает по первому требованию наличные?!
Но кто знает, через что должен пройти миллионер? Богатые тоже плачут, ведь чайник производит деньги, как только кто-то из окружающих чувствует боль.
Как далеко готовы зайти ради денег молодожены Джон и Эллис в погоне за богатством?
Качество: BDRip
Формат: AVI
Видео: 720x304 (2.35:1), 23.976 fps, XViD ~ 1598 kbps avg, 0.304 bit/pixel
Аудио: 48 kHz, АС3 6 ch, 448 kbps-

Media Info

D:\Фильмы\Миллион для чайников\Million.dlya.chaynikov.2012.P.BDRip.1.46GB\Million.dlya.chaynikov.2012.P.BDRip.1.46GB.avi
General
Complete name : D:\Фильмы\Миллион для чайников\Million.dlya.chaynikov.2012.P.BDRip.1.46GB\Million.dlya.chaynikov.2012.P.BDRip.1.46GB.avi
Format : AVI
Format/Info : Audio Video Interleave
File size : 1.46 GiB
Duration : 1h 41mn
Overall bit rate : 2 055 Kbps
Writing application : VirtualDubModRus 1.5.10.2 (build 2542/release)
Writing library : VirtualDubMod build 2542/release
Video #0
ID : 0
Format : MPEG-4 Visual
Format profile : Advanced [email protected]
Format settings, BVOP : 1
Format settings, QPel : No
Format settings, GMC : No warppoints
Format settings, Matrix : Custom
Codec ID : XVID
Codec ID/Hint : XviD
Duration : 1h 41mn
Bit rate : 1 598 Kbps
Width : 720 pixels
Height : 304 pixels
Display aspect ratio : 2.35:1
Frame rate : 23.976 fps
Color space : YUV
Chroma subsampling : 4:2:0
Bit depth : 8 bits
Scan type : Progressive
Compression mode : Lossy
Bits/(Pixel*Frame) : 0.304
Stream size : 1.13 GiB (78%)
Writing library : XviD 65
Audio #1
ID : 1
Format : AC-3
Format/Info : Audio Coding 3
Mode extension : CM (complete main)
Format settings, Endianness : Big
Codec ID : 2000
Duration : 1h 41mn
Bit rate mode : Constant
Bit rate : 448 Kbps
Channel(s) : 6 channels
Channel positions : Front: L C R, Side: L R, LFE
Sampling rate : 48.0 KHz
Bit depth : 16 bits
Compression mode : Lossy
Stream size : 325 MiB (22%)
Alignment : Split accross interleaves
Interleave, duration : 42 ms (1.00 video frame)
Interleave, preload duration : 500 ms


Последний раз редактировалось: ksd66 (2013-11-27 15:34), всего редактировалось 1 раз

Создавать темы 27-Ноя-2013 15:44 (спустя 12 часов)

Немного подправил. Спасибо за релиз.
Яндекс.Метрика
Рейтинг@Mail.ru