Игрок / The Gambler (2014) BDRip [H.264/1080p]

 

Создавать темы 31-Мар-2015 03:14

-Игрок / The Gambler (2014) BDRip- Производство: Paramount Pictures, Winkler Films / США
Жанр: Триллер, Драма, Криминал
Режиссер: Руперт Уайатт
Актеры: Марк Уолберг, Джон Гудман, Бри Ларсон, Майкл Кеннет Уильямс, Джессика Лэнг, Гриффин Кливлэнд, Омар Лейва, Энтони Келли, Стив Парк, Эмори Коэн
Описание фильма:
Джим Беннетт — рисковый парень. Днем он — гениальный писатель и отличный преподаватель, ночью — заядлый игрок. Он глубоко увяз в мире, где закон — пустой звук, и однажды ставит на кон все, включая собственную жизнь. Те, кому он должен, опасны, а помочь ему может только тот, кто еще опаснее.

Дата мировой премьеры: 10 ноября 2014
Дата российской премьеры: 22 января 2015, «Централ Партнершип»
Дата выхода DVD/Blu-ray релиза: 1 июня 2015, «Новый Диск»
Продолжительность: 01:50:58
Качество видео: BDRip [H.264/1080p]
Перевод: Дублированный
Субтитры: Отсутствуют
Видео: MPEG-4 AVC/H.264 / 1920x800 / 8735 kbps / 23,976 fps / 0,237 bpp
Аудио 1: AC3 5.1 448 kbps | Русский - Дублированный
Аудио 2: DTS 5.1 1510 kbps | Английский - Оригинальный

MediaInfo:

олное имя : C:\!\Игрок-The.Gambler.(2014).BDRip.[x264-1080p].mkv
Формат : Matroska
Версия формата : Version 2
Размер файла : 8,29 Гбайт
Продолжительность : 1 ч. 50 м.
Общий поток : 10,7 Мбит/сек
Дата кодирования : UTC 2015-03-30 20:05:09
Программа кодирования : mkvmerge v7.8.0 ('River Man') 64bit built on Mar 27 2015 16:31:37
Библиотека кодирования : libebml v1.3.1 + libmatroska v1.4.2
DURATION : 01:50:58.688000000
NUMBER_OF_FRAMES : 208084
NUMBER_OF_BYTES : 372886528
_STATISTICS_WRITING_APP : mkvmerge v7.8.0 ('River Man') 64bit built on Mar 27 2015 16:31:37
_STATISTICS_WRITING_DATE_UTC : 2015-03-30 20:05:09
_STATISTICS_TAGS : BPS DURATION NUMBER_OF_FRAMES NUMBER_OF_BYTES
Видео
Идентификатор : 1
Формат : AVC
Формат/Информация : Advanced Video Codec
Профиль формата : [url=mailto:[email protected]][email protected][/url]
Параметр CABAC формата : Да
Параметр ReFrames формата : 5 кадров
Идентификатор кодека : V_MPEG4/ISO/AVC
Продолжительность : 1 ч. 50 м.
Битрейт : 8735 Кбит/сек
Ширина : 1920 пикселей
Высота : 800 пикселей
Соотношение сторон : 2,40:1
Режим частоты кадров : Постоянный
Частота кадров : 23,976 кадра/сек
Цветовое пространство : YUV
Субдискретизация насыщенности : 4:2:0
Битовая глубина : 8 бит
Тип развёртки : Прогрессивная
Бит/(Пиксели*Кадры) : 0.237
Размер потока : 6,61 Гбайт (80%)
Библиотека кодирования : x264 core 144 r2525 40bb568
Настройки программы : cabac=1 / ref=5 / deblock=1:0:0 / analyse=0x3:0x133 / me=umh / subme=7 / psy=1 / psy_rd=1.00:0.00 / mixed_ref=1 / me_range=16 / chroma_me=1 / trellis=1 / 8x8dct=1 / cqm=0 / deadzone=21,11 / fast_pskip=0 / chroma_qp_offset=-2 / threads=60 / lookahead_threads=6 / sliced_threads=0 / nr=0 / decimate=1 / interlaced=0 / bluray_compat=0 / constrained_intra=0 / bframes=3 / b_pyramid=2 / b_adapt=1 / b_bias=0 / direct=1 / weightb=1 / open_gop=0 / weightp=2 / keyint=250 / keyint_min=23 / scenecut=40 / intra_refresh=0 / rc_lookahead=40 / rc=2pass / mbtree=1 / bitrate=8735 / ratetol=1.0 / qcomp=0.60 / qpmin=0 / qpmax=69 / qpstep=4 / cplxblur=20.0 / qblur=0.5 / ip_ratio=1.40 / aq=1:1.00
Язык : English
Default : Да
Forced : Нет
DURATION : 01:50:58.621000000
NUMBER_OF_FRAMES : 159647
NUMBER_OF_BYTES : 7267614828
_STATISTICS_WRITING_APP : mkvmerge v7.8.0 ('River Man') 64bit built on Mar 27 2015 16:31:37
_STATISTICS_WRITING_DATE_UTC : 2015-03-30 20:05:09
_STATISTICS_TAGS : BPS DURATION NUMBER_OF_FRAMES NUMBER_OF_BYTES
Аудио #1
Идентификатор : 2
Формат : AC-3
Формат/Информация : Audio Coding 3
Расширение режима : CM (complete main)
Параметр Endianness формата : Big
Идентификатор кодека : A_AC3
Продолжительность : 1 ч. 50 м.
Вид битрейта : Постоянный
Битрейт : 448 Кбит/сек
Каналы : 6 каналов
Расположение каналов : Front: L C R, Side: L R, LFE
Частота : 48,0 КГц
Битовая глубина : 16 бит
Метод сжатия : С потерями
Размер потока : 356 Мбайт (4%)
Язык : Russian
Default : Да
Forced : Нет
Аудио #2
Идентификатор : 3
Формат : DTS
Формат/Информация : Digital Theater Systems
Режим : 16
Параметр Endianness формата : Big
Идентификатор кодека : A_DTS
Продолжительность : 1 ч. 50 м.
Вид битрейта : Постоянный
Битрейт : 1509 Кбит/сек
Каналы : 6 каналов
Расположение каналов : Front: L C R, Side: L R, LFE
Частота : 48,0 КГц
Битовая глубина : 24 бит
Метод сжатия : С потерями
Размер потока : 1,17 Гбайт (14%)
Язык : English
Default : Нет
Forced : Нет
Меню
00:00:00.000 : en:00:00:00.000
00:08:21.376 : en:00:08:21.376
00:16:46.422 : en:00:16:46.422
00:25:22.020 : en:00:25:22.020
00:29:16.254 : en:00:29:16.254
00:34:09.422 : en:00:34:09.422
00:45:08.456 : en:00:45:08.456
00:51:00.516 : en:00:51:00.516
00:59:08.336 : en:00:59:08.336
01:06:22.729 : en:01:06:22.729
01:12:39.230 : en:01:12:39.230
01:21:58.664 : en:01:21:58.664
01:24:17.094 : en:01:24:17.094
01:31:11.758 : en:01:31:11.758
01:35:35.563 : en:01:35:35.563
01:46:04.441 : en:01:46:04.441
Скриншоты:

Создавать темы 31-Мар-2015 16:40 (спустя 13 часов)

Топик был перенесен из форума Новинки (HD) в форум Зарубежные Фильмы (HD)
T_O_M
Яндекс.Метрика
Рейтинг@Mail.ru