Том и Джерри: Потерянный дракон / Tom & Jerry: The Lost Dragon [2014 г., мультфильм, комедия, BDRip] Dub + Original (Eng)

 

Создавать темы 30-Мар-2015 20:31

-Том и Джерри: Потерянный дракон / Tom & Jerry: The Lost Dragon- Производство: США
Год выпуска: 2014 г.
Жанр: мультфильм, комедия
Продолжительность: 00:56:40
Мировая премьера: 27 июля 2014
Дата выхода DVD: 18 сентября 2014, «CP Дистрибуция»-Перевод: Профессиональный (многоголосный, закадровый)
Оригинальный аудиопоток: английский-Режиссер: Тони Червоне / Tony Cervone
В ролях: Келли Стейблз, Викки Льюис, Джим Каммингс, Лорейн Ньюмен, Уэйн Найту-Описание: Всеми любимая парочка — кот и мышь -вернулись в этой волшебной сказке! А вместе с ними — и песни, веселье и магия. Приключение наших героев начинается с того, что они находят странное яйцо, которое было украдено у огромного огнедышащего дракона! Вскоре из яйца вылупляется малыш Паффи и решает, что Том — это его мама. Настоящая мама-дракониха хочет вернуть своего драконёнка, но не она одна — за малышом охотится ведьма Дризельда!
С помощью волшебных союзников и зверей Тому и Джерри предстоит остановить ведьму и вернуть детёныша его маме. Вас ждёт магия, сражения и, конечно же, море веселья! Смогут ли друзья помочь героям этой сказки, будет ли у неё счастливый финал? Отправьтесь в это увлекательное путешествие всей семьёй и сами узнаете!-
-Качество видео: BDRip
Контейнер: AVI
Видео кодек: XviD
Аудио кодек: AC3
Видео: 704x400 (1.76:1), 23.976 fps, XviD build 65 ~1906 kbps avg, 0.28 bit/pixel
Аудио: Russian: 48 kHz, AC3 Dolby Digital, 3/2 (L,C,R,l,r) + LFE ch, ~384 kbps
Аудио #2: English: 48 kHz, AC3 Dolby Digital, 3/2 (L,C,R,l,r) + LFE ch, ~448 kbps
Cубтитры: нет-

Media Info

General
Complete name : D:\Tom.i.Dzherri.Poteryannyj.drakon.2014.DUAL.BDRip.avi
Format : AVI
Format/Info : Audio Video Interleave
File size : 1.09 GiB
Duration : 56mn 40s
Overall bit rate : 2 753 Kbps
Writing application : VirtualDubMod 1.5.10.2 (build 2540/release)
Video
ID : 0
Format : MPEG-4 Visual
Format profile : Advanced [email protected]
Format settings, BVOP : 1
Format settings, QPel : No
Format settings, GMC : No warppoints
Format settings, Matrix : Custom
Codec ID : XVID
Codec ID/Hint : XviD
Duration : 56mn 40s
Bit rate : 1 907 Kbps
Width : 704 pixels
Height : 400 pixels
Display aspect ratio : 16:9
Frame rate : 23.976 fps
Color space : YUV
Chroma subsampling : 4:2:0
Bit depth : 8 bits
Scan type : Progressive
Compression mode : Lossy
Bits/(Pixel*Frame) : 0.282
Stream size : 773 MiB (69%)
Writing library : XviD 65
Audio #1
ID : 1
Format : AC-3
Format/Info : Audio Coding 3
Mode extension : CM (complete main)
Format settings, Endianness : Big
Codec ID : 2000
Duration : 56mn 40s
Bit rate mode : Constant
Bit rate : 384 Kbps
Channel(s) : 6 channels
Channel positions : Front: L C R, Side: L R, LFE
Sampling rate : 48.0 KHz
Bit depth : 16 bits
Compression mode : Lossy
Stream size : 156 MiB (14%)
Alignment : Split accross interleaves
Interleave, duration : 42 ms (1.00 video frame)
Interleave, preload duratio : 500 ms
Audio #2
ID : 2
Format : AC-3
Format/Info : Audio Coding 3
Mode extension : CM (complete main)
Format settings, Endianness : Big
Codec ID : 2000
Duration : 56mn 40s
Bit rate mode : Constant
Bit rate : 448 Kbps
Channel(s) : 6 channels
Channel positions : Front: L C R, Side: L R, LFE
Sampling rate : 48.0 KHz
Bit depth : 16 bits
Compression mode : Lossy
Stream size : 182 MiB (16%)
Alignment : Split accross interleaves
Interleave, duration : 42 ms (1.00 video frame)
Interleave, preload duratio : 500 ms
-Скриншоты:--
Яндекс.Метрика
Рейтинг@Mail.ru