007: Спектр / Spectre (2015, Боевик, триллер, приключения) WEBRip 1080p | Трейлер

 

Создавать темы 30-Мар-2015 07:29

-007: Спектр / Spectre (2015)-Год выпуска: 2015
Производство: США, Великобритания / Metro-Goldwyn-Mayer (MGM), Columbia Pictures, Eon Productions Ltd.
Жанр: Боевик, триллер, приключения
Перевод: Дублированный
Режиссер: Сэм Мендес
Продюсеры: Барбара Брокколи, Майкл Дж. Уилсон, Закария Алауи
Актеры: Дэниэл Крэйг, Моника Беллуччи, Рэйф Файнс, Леа Сейду, Дэйв Батиста, Кристоф Вальц, Бен Уишоу, Наоми Харрис, Стефани Сигман, Эндрю Скотт
Описание фильма:
Таинственное послание из прошлого Бонда выведет его к зловещей террористической организации «Спектр». Пока М участвует в политических баталиях, отстаивая интересы MI6, Бонд приоткрывает завесу лжи, чтобы раскрыть ужасную правду, скрываемую «Спектром».-Дата мировой премьеры: 23 октября 2015
Дата российской премьеры: 6 ноября 2015, «WDSSPR»
-Продолжительность: 00:01:47
Качество видео: WEBRip
Видеокодек: MPEG-4 AVC/H.264
Битрейт видео: ~18,0 Мбит/сек
Размер кадра: 1920x1080
Аудиокодек: AC3 5.1
Битрейт аудио: 448 Кбит/сек

MediaInfo:

Общее
Уникальный идентификатор : 226500326745980050878631737812310688787 (0xAA66604CA290B2328797D1E0062E0413)
Полное имя : F:ВидеоSpectre (2015) WEBRip [1080p] [Трейлер].mkv
Формат : Matroska
Версия формата : Version 4 / Version 2
Размер файла : 219 Мбайт
Продолжительность : 1 м. 47 с.
Общий поток : 17,1 Мбит/сек
Название фильма : LB4NNM
Дата кодирования : UTC 2015-03-29 08:02:06
Программа кодирования : mkvmerge v7.7.0 ('Six Voices') 64bit built on Feb 28 2015 23:39:33
Библиотека кодирования : Lavf55.37.101
Attachements : cover.jpg
Видео
Идентификатор : 1
Формат : AVC
Формат/Информация : Advanced Video Codec
Профиль формата : [email protected]
Параметр CABAC формата : Нет
Параметр ReFrames формата : 1 кадр
Идентификатор кодека : V_MPEG4/ISO/AVC
Продолжительность : 1 м. 47 с.
Битрейт : 16,4 Мбит/сек
Номинальный битрейт : 18,0 Мбит/сек
Ширина : 1920 пикселей
Высота : 1080 пикселей
Соотношение сторон : 16:9
Режим частоты кадров : Постоянный
Частота кадров : 23,976 кадра/сек
Цветовое пространство : YUV
Субдискретизация насыщенности : 4:2:0
Битовая глубина : 8 бит
Тип развёртки : Прогрессивная
Бит/(Пиксели*Кадры) : 0.329
Размер потока : 209 Мбайт (95%)
Библиотека кодирования : x264 core 119
Настройки программы : cabac=0 / ref=1 / deblock=0:0:0 / analyse=0:0 / me=dia / subme=0 / psy=1 / psy_rd=1.00:0.00 / mixed_ref=0 / me_range=16 / chroma_me=1 / trellis=0 / 8x8dct=0 / cqm=0 / deadzone=21,11 / fast_pskip=1 / chroma_qp_offset=0 / threads=4 / sliced_threads=0 / nr=0 / decimate=1 / interlaced=0 / bluray_compat=0 / constrained_intra=0 / bframes=0 / weightp=0 / keyint=250 / keyint_min=23 / scenecut=0 / intra_refresh=0 / rc=abr / mbtree=0 / bitrate=18000 / ratetol=1.0 / qcomp=0.60 / qpmin=0 / qpmax=69 / qpstep=4 / ip_ratio=1.40 / aq=0
Default : Да
Forced : Нет
Дата кодирования : UTC 1970-01-01 00:00:00
HANDLER_NAME : VideoHandler
DURATION : 00:01:47.316000000
NUMBER_OF_FRAMES : 2573
NUMBER_OF_BYTES : 223789384
_STATISTICS_WRITING_APP : mkvmerge v7.7.0 ('Six Voices') 64bit built on Feb 28 2015 23:39:33
_STATISTICS_WRITING_DATE_UTC : 2015-03-29 08:02:06
_STATISTICS_TAGS : BPS DURATION NUMBER_OF_FRAMES NUMBER_OF_BYTES
Аудио
Идентификатор : 2
Формат : AC-3
Формат/Информация : Audio Coding 3
Расширение режима : CM (complete main)
Параметр Endianness формата : Big
Идентификатор кодека : A_AC3
Продолжительность : 1 м. 47 с.
Вид битрейта : Постоянный
Битрейт : 448 Кбит/сек
Каналы : 6 каналов
Расположение каналов : Front: L C R, Side: L R, LFE
Частота : 48,0 КГц
Битовая глубина : 16 бит
Метод сжатия : С потерями
Задержка видео : -5 мс.
Размер потока : 5,73 Мбайт (3%)
Заголовок : дубляж
Язык : English
Default : Да
Forced : Нет
Дата кодирования : UTC 2015-03-25 14:41:55
HANDLER_NAME : IsoMedia File Produced by Google, 5-11-2011
DURATION : 00:01:47.328000000
NUMBER_OF_FRAMES : 3354
NUMBER_OF_BYTES : 6010368
_STATISTICS_WRITING_APP : mkvmerge v7.7.0 ('Six Voices') 64bit built on Feb 28 2015 23:39:33
_STATISTICS_WRITING_DATE_UTC : 2015-03-29 08:02:06
_STATISTICS_TAGS : BPS DURATION NUMBER_OF_FRAMES NUMBER_OF_BYTES
Скриншоты:
Яндекс.Метрика
Рейтинг@Mail.ru