[ Сегодня на трекере фрилич! Идет свободное скачивание без начисления Download ]

Мушкетеры / The Musketeers [S02] (2015,Драма, приключения) HDTV 720p | NewStudio

 

Создавать темы 29-Мар-2015 21:14

-Мушкетеры / The Musketeers[S02] (2015) -Информация о фильме
Название: Мушкетеры
Оригинальное название: The Musketeers
Год выхода: 2015
Жанр: Драма, приключения
Режиссер: Тоби Хэйнс, Фэррен Блэкберн, Ричард Кларк
В ролях: Люк Паскуалино, Том Бёрк, Ховард Чарльз, Сантьяго Кабрера, Александра Доулинг, Райан Гейдж, Мэйми МакКой, Хьюго Спир, Шарлотта Хоуп, Джулиан Бастида, Эмили Бичем, Филип Броди, Кевин Кларк, Джей Джей Филд, Тамла Кари, Эбигейл Райс, Джеймс Кэллис, Шон Сернов, Фиона Глэскотт, Джим Хай, Энтон Лессер, Саймон Микок, Стюарт Мур, Анна Скеллерн, Эшли Уолтерс, Власта Сваткова
О фильме:
Мушкетеры собираются на улицах Парижа в семнадцатом веке, где закон и порядок являются больше идеей, чем реальностью. Личные телохранители короля Людовика XIII, Атос, Арамис и Портос решительно стоят за социальную справедливость, за честь, за доблесть, так же за любовь — и за острые ощущения.

Страна: Великобритания
Продолжительность: ~ 00:55:00
Перевод: Профессиональный (многоголосый закадровый) NewStudio
Файл
Кодек: MPEG-4 AVC/H.264
Качество: HDTV 720p
Видео: AVC, 1280x720 (1.778), 3454 Кбит/сек, 25.000 кадр/сек, 0.150 Bits/Pixel
Звук:
rus: AC-3, 48 kHz, 192 kb/s
eng: AC-3, 48 kHz, 192 kb/s
Субтитры: отсутствуют

Релиз

Релиз группы:
Перевод: Григорий Сенин
Постер: Vortex

Список серий

01. Держи друзей близко... / Keep Your Friends Close
02. Обычный человек /An Ordinary Man
03. Благородный изменник /The Good Traitor
04. Эмили / Emilie
05. Возвращение / The Return
06. Сквозь тусклое стекло / Through a Glass Darkly...
07. Свадебный переполох / A Marriage of Inconvenience
08. Щедрый отец / The Prodigal Father
09. Обвинённые /The Accused
10. Суд и приговор /Trial and Punishment

MediaInfo

Общее
Уникальный идентификатор : 179013651112448454666354488916117820851 (0x86ACC66DD0D518C7835A76F6CBEC15B3)
Полное имя : G:FilmsThe.Musketeers.S02.NThe.Musketeers.s02e01.HDTV.720p.NewStudio.TV.mkv
Формат : Matroska
Версия формата : Version 4 / Version 2
Размер файла : 1,59 Гбайт
Продолжительность : 58 м.
Общий поток : 3916 Кбит/сек
Дата кодирования : UTC 2015-01-05 15:45:25
Программа кодирования : mkvmerge v7.4.0 ('Circles') 64bit built on Dec 12 2014 12:19:56
Библиотека кодирования : libebml v1.3.0 + libmatroska v1.4.1
DURATION : 00:58:10.848000000
NUMBER_OF_FRAMES : 109089
NUMBER_OF_BYTES : 83780352
_STATISTICS_WRITING_APP : mkvmerge v7.4.0 ('Circles') 64bit built on Dec 12 2014 12:19:56
_STATISTICS_WRITING_DATE_UTC : 2015-01-05 15:45:25
_STATISTICS_TAGS : BPS DURATION NUMBER_OF_FRAMES NUMBER_OF_BYTES
Видео
Идентификатор : 1
Формат : AVC
Формат/Информация : Advanced Video Codec
Профиль формата : [email protected]
Параметр CABAC формата : Да
Параметр ReFrames формата : 8 кадров
Идентификатор кодека : V_MPEG4/ISO/AVC
Продолжительность : 58 м.
Битрейт : 3454 Кбит/сек
Ширина : 1280 пикселей
Высота : 720 пикселей
Соотношение сторон : 16:9
Режим частоты кадров : Постоянный
Частота кадров : 25,000 кадров/сек
Цветовое пространство : YUV
Субдискретизация насыщенности : 4:2:0
Битовая глубина : 8 бит
Тип развёртки : Прогрессивная
Бит/(Пиксели*Кадры) : 0.150
Размер потока : 1,40 Гбайт (88%)
Библиотека кодирования : x264 core 144 r2525 40bb568
Настройки программы : cabac=1 / ref=8 / deblock=1:0:0 / analyse=0x3:0x133 / me=umh / subme=9 / psy=1 / psy_rd=1.00:0.00 / mixed_ref=1 / me_range=16 / chroma_me=1 / trellis=2 / 8x8dct=1 / cqm=0 / deadzone=21,11 / fast_pskip=1 / chroma_qp_offset=-2 / threads=18 / lookahead_threads=2 / sliced_threads=0 / nr=0 / decimate=1 / interlaced=0 / bluray_compat=0 / constrained_intra=0 / bframes=5 / b_pyramid=2 / b_adapt=2 / b_bias=0 / direct=3 / weightb=1 / open_gop=0 / weightp=2 / keyint=250 / keyint_min=25 / scenecut=40 / intra_refresh=0 / rc_lookahead=60 / rc=crf / mbtree=1 / crf=18.0 / qcomp=0.60 / qpmin=0 / qpmax=69 / qpstep=4 / ip_ratio=1.40 / aq=1:1.00
Язык : English
Default : Да
Forced : Нет
Коэффициенты матрицы : BT.709
DURATION : 00:58:10.840000000
NUMBER_OF_FRAMES : 87271
NUMBER_OF_BYTES : 1540273803
_STATISTICS_WRITING_APP : mkvmerge v7.4.0 ('Circles') 64bit built on Dec 12 2014 12:19:56
_STATISTICS_WRITING_DATE_UTC : 2015-01-05 15:45:25
_STATISTICS_TAGS : BPS DURATION NUMBER_OF_FRAMES NUMBER_OF_BYTES
Аудио #1
Идентификатор : 2
Формат : AC-3
Формат/Информация : Audio Coding 3
Расширение режима : CM (complete main)
Параметр Endianness формата : Big
Идентификатор кодека : A_AC3
Продолжительность : 58 м.
Вид битрейта : Постоянный
Битрейт : 192 Кбит/сек
Каналы : 2 канала
Расположение каналов : Front: L R
Частота : 48,0 КГц
Битовая глубина : 16 бит
Метод сжатия : С потерями
Задержка видео : -80 мс.
Размер потока : 79,9 Мбайт (5%)
Язык : Russian
Default : Да
Forced : Нет
DURATION : 00:58:10.624000000
NUMBER_OF_FRAMES : 109082
NUMBER_OF_BYTES : 83774976
_STATISTICS_WRITING_APP : mkvmerge v7.4.0 ('Circles') 64bit built on Dec 12 2014 12:19:56
_STATISTICS_WRITING_DATE_UTC : 2015-01-05 15:45:25
_STATISTICS_TAGS : BPS DURATION NUMBER_OF_FRAMES NUMBER_OF_BYTES
Аудио #2
Идентификатор : 3
Формат : AC-3
Формат/Информация : Audio Coding 3
Расширение режима : CM (complete main)
Параметр Endianness формата : Big
Идентификатор кодека : A_AC3
Продолжительность : 58 м.
Вид битрейта : Постоянный
Битрейт : 192 Кбит/сек
Каналы : 2 канала
Расположение каналов : Front: L R
Частота : 48,0 КГц
Битовая глубина : 16 бит
Метод сжатия : С потерями
Размер потока : 79,9 Мбайт (5%)
Язык : English
Default : Нет
Forced : Нет

Скриншоты

Яндекс.Метрика
Рейтинг@Mail.ru