[ Сегодня на трекере фрилич! Идет свободное скачивание без начисления Download ]

Человек и львы - история одного сафари / The Lionman - African Safari [01-10 из 10] (2013)[ Документальный HDTVRip от Leo.pard | P1]

 

Создавать темы 26-Ноя-2013 20:05

[img=right]Человек и львы - история одного сафари
The Lionman - African Safari
Lion Man - One World African Safari
- Год выпуска: 2013
Страна: США
Жанр: Документальный
Продолжительность: 216 минут (10 серий по ~22 мин.)
Перевод: Профессиональный (одноголосый закадровый) АРК·ТВ
Русские субтитры: нет-В ролях: Крейг Буш / Craig Busch
Описание: Крейг Буш вырос на ферме и сам научился всем премудростям общения с большими кошками. Крейг помогает ловить браконьеров и бороться с лесными пожарами. В заповеднике под Йоханнесбургом он создал рай для редких представителей кошачьих: белых бенгальских тигров, барбарийских львов и белых львов. Крейг Буш вместе с группой энтузиастов, посвятивших свою жизнь животным, ищет пропавших гепардов, лечит безнадёжно больных тигров, выслеживает безжалостных убийц-охотников на носорогов. Параллельно, он по всему миру собирает единомышленников (среди них и "человек-волк" Шон Эллис). Крейг взял к себе и выкормил осиротевшего белого львёнка по кличке Джабулла, поставил на ноги несколько барбарийских львят. Он ездит по миру, предлагая котят на обмен, чтобы улучшить генетику редчайших кошек, которых Крейг помог спасти от полного исчезновения.-Автор рипа: Leo.pard
Исходник: HDTV 1080i Спасибо LeXa 84!-Kачество: HDTVRip
Формат: AVI
Видео: XviD, 720x400 (16:9), ~ 1874 Kbps, 25 fps
Аудио: AC3, 384 Kbps, 48 kHz, 6 channels

MediaInfo

General
Complete name : D:Chelovek.i.l'vy-istorija.odnogo.safari.E08.2013.HDTVRip.avi
Format : AVI
Format/Info : Audio Video Interleave
File size : 350 MiB
Duration : 21mn 56s
Overall bit rate : 2 231 Kbps
Writing application : VirtualDubMod 1.5.10.3 | www.virtualdub-fr.org || (build 2550/release)
Writing library : VirtualDubMod build 2550/release
Video
ID : 0
Format : MPEG-4 Visual
Format profile : Advanced [email protected]
Format settings, BVOP : 1
Format settings, QPel : No
Format settings, GMC : No warppoints
Format settings, Matrix : Custom
Codec ID : XVID
Codec ID/Hint : XviD
Duration : 21mn 56s
Bit rate : 1 837 Kbps
Width : 720 pixels
Height : 400 pixels
Display aspect ratio : 16:9
Frame rate : 25.000 fps
Color space : YUV
Chroma subsampling : 4:2:0
Bit depth : 8 bits
Scan type : Progressive
Compression mode : Lossy
Bits/(Pixel*Frame) : 0.255
Stream size : 288 MiB (82%)
Writing library : XviD 73
Audio
ID : 1
Format : AC-3
Format/Info : Audio Coding 3
Mode extension : CM (complete main)
Codec ID : 2000
Duration : 21mn 56s
Bit rate mode : Constant
Bit rate : 384 Kbps
Channel(s) : 6 channels
Channel positions : Front: L C R, Side: L R, LFE
Sampling rate : 48.0 KHz
Bit depth : 16 bits
Compression mode : Lossy
Stream size : 60.3 MiB (17%)
Alignment : Split accross interleaves
Interleave, duration : 40 ms (1.00 video frame)
Interleave, preload duration : 500 ms

Скриншоты

Яндекс.Метрика
Рейтинг@Mail.ru