Все то, о чем мы так долго мечтали (Рудольф Фрунтов) [1997, Боевик, мелодрама, DVDRip]

 

Создавать темы 26-Мар-2015 16:00

Все то, о чем мы так долго мечтали- Год выпуска: 1997
Выпущено: Россия / Роскомкино
Жанр: боевик, мелодрама
Продолжительность: 01:39:03-Режиссёр:
Рудольф Фрунтов-В ролях:
Николай Добрынин, Анна Терехова, Всеволод Шиловский, Альберт Филозов, Александр Песков, Нина Агапова, Георгий Корольчук, Сергей Угаров, Игорь Регнер, Наталья Позднякова-Описание:
Молодой человек, мечтающий любой ценой добиться удачи, оказывается втянутым в криминальную ситуацию. Пройдя буквально через круги ада, познав горечь предательства, унижений и смертельной опасности, он обретает в итоге веру, любовь и надежду на счастье.- | КиноПоиск | Сэмпл |-Качество: DVDRip DVD5
Формат: AVI
Видео: 656x512 (1.28:1), 25 fps, XviD build 73 ~1902 kbps avg, 0.23 bit/pixel
Аудио: 48 kHz, AC3 Dolby Digital, 2/0 (L,R) ch, ~192.00 kbps avg
-

Скриншоты

MediaInfo:

MediaInfo
General
Complete name : D:\Vse_to_o_4em_my_tak_dolgo_me4tali_1997_DVDRip_by_Dalemake.avi
Format : AVI
Format/Info : Audio Video Interleave
File size : 1.46 GiB
Duration : 1h 39mn
Overall bit rate : 2 104 Kbps
Writing application : VirtualDubMod 1.5.10.3 | www.virtualdub-fr.org || (build 2550/release)
Writing library : VirtualDubMod build 2550/release
Video
ID : 0
Format : MPEG-4 Visual
Format profile : Advanced [email protected]
Format settings, BVOP : 2
Format settings, QPel : No
Format settings, GMC : No warppoints
Format settings, Matrix : Custom
Codec ID : XVID
Codec ID/Hint : XviD
Duration : 1h 39mn
Bit rate : 1 903 Kbps
Width : 656 pixels
Height : 512 pixels
Display aspect ratio : 1.281
Frame rate : 25.000 fps
Color space : YUV
Chroma subsampling : 4:2:0
Bit depth : 8 bits
Scan type : Progressive
Compression mode : Lossy
Bits/(Pixel*Frame) : 0.227
Stream size : 1.32 GiB (90%)
Writing library : XviD 73
Audio
ID : 1
Format : AC-3
Format/Info : Audio Coding 3
Mode extension : CM (complete main)
Format settings, Endianness : Big
Codec ID : 2000
Duration : 1h 39mn-Bit rate mode : Constant
Bit rate : 192 Kbps
Channel(s) : 2 channels
Channel positions : Front: L R
Sampling rate : 48.0 KHz
Bit depth : 16 bits
Compression mode : Lossy
Stream size : 136 MiB (9%)
Alignment : Split accross interleaves
Interleave, duration : 40 ms (1.00 video frame)
Interleave, preload duration : 500 ms
Яндекс.Метрика
Рейтинг@Mail.ru