Меч мести / Sword of Vengeance (Джим Видон ) [2015, боевик, WEB-DL 720p] [den904]

 

Создавать темы 26-Мар-2015 15:39

Меч мести / Sword of Vengeance-Год выпуска: 2015
Страна: Великобритания
Жанр: боевик
Продолжительность: 01:26:53
Перевод: Любительский (одноголосый) [den904]
Субтитры: английские-В ролях: Стэнли Вебер, Эдвард Экрут, Misha Berich, Пит Чеффи, Джанни Джардинелли, Милица Жевтич, Вид Кркетжич, Дэйв Леджено, Ненад Печинар, Карел Роден
Режиссёр: Джим Видон-Описание: После победы в битве при Гастингсе Вильгельм Завоеватель отправил свою армию на север Англии для совершения свирепого разорительного вторжения. Самый грозный полководец короля, граф Дюран, вырезал сто тысяч саксов и разорил их земли. Теперь Дюран правит севером вместе с сыновьями Артусом и Романом. Уцелевшие живут в постоянном страхе. Но загадочный чужестранец вскоре возглавит их восстание.-Качество: WEB-DL 720p
Формат: MKV
Видео кодек: AVC
Аудио кодек: AC3
Видео: 3876 kb/s, 1280x534, 23,976 fps
Аудио: Russian: AC3, 192 kb/s (2 ch) 48,0 КГц
Аудио: English: AC3, 384 kb/s (6 ch) 48,0 КГц
-

MI

Общее
Уникальный идентификатор : 172624153593662421094695599860768892889 (0x81DE33E1120D9D769B931475E0C8E7D9)
Уникальный идентификатор : 172624153593662421094695599860768892889 (0x81DE33E1120D9D769B931475E0C8E7D9) Полное имя : D:\Кино\Sword.of.Vengeance.2015.WEB-DL.720p.mkv
Полное имя : D:\Кино\Sword.of.Vengeance.2015.WEB-DL.720p.mkv Формат : Matroska
Формат : Matroska Версия формата : Version 4 / Version 2
Версия формата : Version 4 / Version 2 Размер файла : 2,76 Гбайт
Размер файла : 2,76 Гбайт Продолжительность : 1 ч. 26 м.
Продолжительность : 1 ч. 26 м. Общий поток : 4542 Кбит/сек
Общий поток : 4542 Кбит/сек Дата кодирования : UTC 2015-03-21 15:09:06
Дата кодирования : UTC 2015-03-21 15:09:06 Программа кодирования : mkvmerge v6.1.0 ('Old Devil') built on Mar 4 2013 09:10:42
Программа кодирования : mkvmerge v6.1.0 ('Old Devil') built on Mar 4 2013 09:10:42 Библиотека кодирования : libebml v1.3.0 + libmatroska v1.4.0
Библиотека кодирования : libebml v1.3.0 + libmatroska v1.4.0
Видео
Идентификатор : 1
Идентификатор : 1 Формат : AVC
Формат : AVC Формат/Информация : Advanced Video Codec
Формат/Информация : Advanced Video Codec Профиль формата : [email protected]
Профиль формата : [email protected] Параметр CABAC формата : Нет
Параметр CABAC формата : Нет Параметр ReFrames формата : 2 кадра
Параметр ReFrames формата : 2 кадра Идентификатор кодека : V_MPEG4/ISO/AVC
Идентификатор кодека : V_MPEG4/ISO/AVC Продолжительность : 1 ч. 26 м.
Продолжительность : 1 ч. 26 м. Битрейт : 3876 Кбит/сек
Битрейт : 3876 Кбит/сек Ширина : 1280 пикселей
Ширина : 1280 пикселей Высота : 534 пикселя
Высота : 534 пикселя Соотношение сторон : 2,40:1
Соотношение сторон : 2,40:1 Режим частоты кадров : Постоянный
Режим частоты кадров : Постоянный Частота кадров : 23,976 кадра/сек
Частота кадров : 23,976 кадра/сек Цветовое пространство : YUV
Цветовое пространство : YUV Субдискретизация насыщенности : 4:2:0
Субдискретизация насыщенности : 4:2:0 Битовая глубина : 8 бит
Битовая глубина : 8 бит Тип развёртки : Прогрессивная
Тип развёртки : Прогрессивная Бит/(Пиксели*Кадры) : 0.236
Бит/(Пиксели*Кадры) : 0.236 Размер потока : 2,35 Гбайт (85%)
Размер потока : 2,35 Гбайт (85%) Язык : English
Язык : English Default : Да
Default : Да Forced : Нет
Forced : Нет Основные цвета : BT.709
Основные цвета : BT.709 Характеристики трансфера : BT.709
Характеристики трансфера : BT.709 Коэффициенты матрицы : BT.709
Коэффициенты матрицы : BT.709 colour_range : Limited
colour_range : Limited
Аудио #1
Идентификатор : 2
Идентификатор : 2 Формат : AC-3
Формат : AC-3 Формат/Информация : Audio Coding 3
Формат/Информация : Audio Coding 3 Расширение режима : CM (complete main)
Расширение режима : CM (complete main) Параметр Endianness формата : Big
Параметр Endianness формата : Big Идентификатор кодека : A_AC3
Идентификатор кодека : A_AC3 Продолжительность : 1 ч. 26 м.
Продолжительность : 1 ч. 26 м. Вид битрейта : Постоянный
Вид битрейта : Постоянный Битрейт : 192 Кбит/сек
Битрейт : 192 Кбит/сек Каналы : 2 канала
Каналы : 2 канала Расположение каналов : Front: L R
Расположение каналов : Front: L R Частота : 48,0 КГц
Частота : 48,0 КГц Битовая глубина : 16 бит
Битовая глубина : 16 бит Метод сжатия : С потерями
Метод сжатия : С потерями Размер потока : 119 Мбайт (4%)
Размер потока : 119 Мбайт (4%) Язык : Russian
Язык : Russian Default : Да
Default : Да Forced : Нет
Forced : Нет
Аудио #2
Идентификатор : 3
Идентификатор : 3 Формат : AC-3
Формат : AC-3 Формат/Информация : Audio Coding 3
Формат/Информация : Audio Coding 3 Расширение режима : CM (complete main)
Расширение режима : CM (complete main) Параметр Endianness формата : Big
Параметр Endianness формата : Big Идентификатор кодека : A_AC3
Идентификатор кодека : A_AC3 Продолжительность : 1 ч. 26 м.
Продолжительность : 1 ч. 26 м. Вид битрейта : Постоянный
Вид битрейта : Постоянный Битрейт : 384 Кбит/сек
Битрейт : 384 Кбит/сек Каналы : 6 каналов
Каналы : 6 каналов Расположение каналов : Front: L C R, Side: L R, LFE
Расположение каналов : Front: L C R, Side: L R, LFE Частота : 48,0 КГц
Частота : 48,0 КГц Битовая глубина : 16 бит
Битовая глубина : 16 бит Метод сжатия : С потерями
Метод сжатия : С потерями Размер потока : 239 Мбайт (8%)
Размер потока : 239 Мбайт (8%) Язык : English
Язык : English Default : Нет
Default : Нет Forced : Нет
Forced : Нет
Текст
Идентификатор : 4
Идентификатор : 4 Формат : UTF-8
Формат : UTF-8 Идентификатор кодека : S_TEXT/UTF8
Идентификатор кодека : S_TEXT/UTF8 Идентификатор кодека/Информация : UTF-8 Plain Text
Идентификатор кодека/Информация : UTF-8 Plain Text Язык : English
Язык : English Default : Нет
Default : Нет Forced : Нет
Forced : Нет
Меню
00:00:00.000 : en:Chapter 1
00:00:00.000 : en:Chapter 1 00:08:54.000 : en:Chapter 2
00:08:54.000 : en:Chapter 2 00:24:03.000 : en:Chapter 3
00:24:03.000 : en:Chapter 3 00:29:58.000 : en:Chapter 4
00:29:58.000 : en:Chapter 4 00:39:40.000 : en:Chapter 5
00:39:40.000 : en:Chapter 5 00:49:42.000 : en:Chapter 6
00:49:42.000 : en:Chapter 6 00:58:45.000 : en:Chapter 7
00:58:45.000 : en:Chapter 7 01:07:09.000 : en:Chapter 8
01:07:09.000 : en:Chapter 8 01:15:18.000 : en:Chapter 9
01:15:18.000 : en:Chapter 9 01:22:42.000 : en:Chapter 10
01:22:42.000 : en:Chapter 10
-

Скриншоты

Яндекс.Метрика
Рейтинг@Mail.ru