Миссия невыполнима: Племя изгоев / Mission: Impossible - Rogue Nation (2015) WEBRip [1080p] [Трейлер]

 

Создавать темы 25-Мар-2015 21:38

-Миссия невыполнима: Племя изгоев / Mission: Impossible - Rogue Nation (2015) WEBRip - Производство: США | Bad Robot, Skydance Productions, TC Productions
Жанр: Боевик
Режиссер: Кристофер МакКуорри
Актеры: Том Круз, Джереми Реннер, Саймон Пегг, Алек Болдуин, Ребекка Фергюсон, Винг Реймз, Шон Харрис, Америка Оливо, Саймон МакБерни, Чжан Цзинчу
Описание фильма:
Итан и команда отправляются на невыполнимую миссию по уничтожению квалифицируемого преступного синдиката который обязался уничтожить МВФ.
Язык: Русский
Перевод: Профессиональный (полное дублирование)--Дата мировой премьеры: 30 июля 2015
Дата российской премьеры: 6 августа 2015, «Централ Партнершип»
Продолжительность: 00:02:25
Качество видео: WEBRip [1080p]
Видеокодек: MPEG-4 AVC
Битрейт видео: ~18.0 Mbps
Размер кадра: 1920x1080
Аудио: (Русский) 48,0 kHz, AC3 5.1, ~448 Kbps

MediaInfo

[scroll]
General
Unique ID                   : 313847494746684291176586924820516472105 (0xEC1CD42CEA5B727DADD957869D5E8529)
Complete name               : F:\MI_trailer_rus_HD.mkv
Format                      : Matroska
Format version              : Version 4 / Version 2
File size                   : 324 MiB
Duration                    : 2mn 25s
Overall bit rate            : 18.7 Mbps
Writing application         : Lavf55.37.101
Writing library             : Lavf55.37.101
Video
ID                          : 1
Format                      : AVC
Format/Info                 : Advanced Video Codec
Format profile              : [url=mailto:[email protected]][email protected][/url]
Format settings, CABAC      : No
Format settings, ReFrames   : 1 frame
Codec ID                    : V_MPEG4/ISO/AVC
Duration                    : 2mn 25s
Bit rate                    : 18.0 Mbps
Width                       : 1 920 pixels
Height                      : 1 080 pixels
Display aspect ratio        : 16:9
Frame rate mode             : Constant
Frame rate                  : 25.000 fps
Color space                 : YUV
Chroma subsampling          : 4:2:0
Bit depth                   : 8 bits
Scan type                   : Progressive
Bits/(Pixel*Frame)          : 0.347
Stream size                 : 309 MiB (96%)
Writing library             : x264 core 119
Encoding settings           : cabac=0 / ref=1 / deblock=0:0:0 / analyse=0:0 / me=dia / subme=0 / psy=1 / psy_rd=1.00:0.00 / mixed_ref=0 / me_range=16 / chroma_me=1 / trellis=0 / 8x8dct=0 / cqm=0 / deadzone=21,11 / fast_pskip=1 / chroma_qp_offset=0 / threads=4 / sliced_threads=0 / nr=0 / decimate=1 / interlaced=0 / bluray_compat=0 / constrained_intra=0 / bframes=0 / weightp=0 / keyint=250 / keyint_min=25 / scenecut=0 / intra_refresh=0 / rc=abr / mbtree=0 / bitrate=18000 / ratetol=1.0 / qcomp=0.60 / qpmin=0 / qpmax=69 / qpstep=4 / ip_ratio=1.40 / aq=0
Default                     : Yes
Forced                      : No
Encoded date                : UTC 1970-01-01 00:00:00
HANDLER_NAME                : VideoHandler
Audio
ID                          : 2
Format                      : AC-3
Format/Info                 : Audio Coding 3
Mode extension              : CM (complete main)
Format settings, Endianness : Big
Codec ID                    : A_AC3
Duration                    : 2mn 25s
Bit rate mode               : Constant
Bit rate                    : 448 Kbps
Channel(s)                  : 6 channels
Channel positions           : Front: L C R, Side: L R, LFE
Sampling rate               : 48.0 KHz
Bit depth                   : 16 bits
Compression mode            : Lossy
Delay relative to video     : -5ms
Stream size                 : 7.75 MiB (2%)
Language                    : English
Default                     : Yes
Forced                      : No
Encoded date                : UTC 2015-03-22 01:30:44
HANDLER_NAME                : IsoMedia File Produced by Google, 5-11-2011[/scroll]

Скриншоты:

Яндекс.Метрика
Рейтинг@Mail.ru