Червовый король / Le roi de coeur (1966) HDTV [H264/1080i]

 

Создавать темы 25-Мар-2015 17:25

-Червовый король / Le roi de coeur (1966) HDTV [1080i]- Производство: Франция, Италия, Fildebroc, Les Productions Artistes Associ�s, Compagnia Cinematografica Montoro
Жанр: Драма, Комедия, Военный
Режиссер: Филипп де Брока
Актеры: Пьер Брассёр, Жан-Клод Бриали, Женевьев Бюжо, Адольфо Чели, Франсуаза Кристоф, Жюльен Гиомар, Мишлин Прель, Мишель Серро, Алан Бейтс, Пало
Описание фильма:
Первая мировая война. Рядовой Чарльз Плампик направляется во французский городок Марвилль, чтобы обезвредить бомбу оставленную немецкими войсками. Преследуемый немцами, он скрывается в местном сумасшедшем доме, обитатели которого объявляют его «Королем сердец». Пока Чарльз пытается найти бомбу, сумасшедшие расходятся по всему городу.

Продолжительность: 01:37:59
Качество видео: HDTV [1080i]
Перевод: Многоголосый закадровый
Видеокодек: AVC/H.264
Битрейт видео: ~6669 kb/s
Размер кадра: 1920х1080
Аудиокодек: MP2, 2ch
Битрейт аудио: 192 kb/s VBR
Сэмпл: Ссылка

Mediainfo:

Общее
Идентификатор                            : 16 (0x10)
Полное имя                               : Le roi de coeur_HD.ts
Формат                                   : MPEG-TS
Размер файла                             : 4,80 Гбайт
Продолжительность                        : 1 ч. 37 м.
Режим общего битрейта                    : Переменный
Общий поток                              : 7010 Кбит/сек
Видео
Идентификатор                            : 1606 (0x646)
Идентификатор меню                       : 606 (0x25E)
Формат                                   : AVC
Формат/Информация                        : Advanced Video Codec
Профиль формата                          : [url=mailto:[email protected]][email protected][/url]
Параметр CABAC формата                   : Да
Параметр ReFrames формата                : 3 кадра
Параметр GOP формата                     : M=4, N=32
Идентификатор кодека                     : 27
Продолжительность                        : 1 ч. 37 м.
Битрейт                                  : 6469 Кбит/сек
Ширина                                   : 1920 пикселей
Высота                                   : 1080 пикселей
Соотношение сторон                       : 16:9
Частота кадров                           : 25,000 кадров/сек
Стандарт вещания                         : PAL
Цветовое пространство                    : YUV
Субдискретизация насыщенности            : 4:2:0
Битовая глубина                          : 8 бит
Тип развёртки                            : Чересстрочная
Порядок развёртки                        : Верхнее поле первое
Бит/(Пиксели*Кадры)                      : 0.125
Размер потока                            : 4,43 Гбайт (92%)
Основные цвета                           : BT.709
Характеристики трансфера                 : BT.709
Коэффициенты матрицы                     : BT.709
Аудио
Идентификатор                            : 2606 (0xA2E)
Идентификатор меню                       : 606 (0x25E)
Формат                                   : MPEG Audio
Версия формата                           : Version 1
Профиль формата                          : Layer 2
Идентификатор кодека                     : 4
Продолжительность                        : 1 ч. 37 м.
Вид битрейта                             : Постоянный
Битрейт                                  : 192 Кбит/сек
Каналы                                   : 2 канала
Частота                                  : 48,0 КГц
Метод сжатия                             : С потерями
Задержка видео                           : 130 мс.
Размер потока                            : 135 Мбайт (3%)
Язык                                     : std
Язык, дополнительно                      : Clean effects
Скриншоты:
Яндекс.Метрика
Рейтинг@Mail.ru