[ Сегодня на трекере фрилич! Идет свободное скачивание без начисления Download ]

Уильям Тёрнер / Mr. Turner (Майк Ли / Mike Leigh) [2014 г., драма, биография, история, HDRip] Sub (Rus) + Original (Eng)

 

Создавать темы 25-Мар-2015 05:20

-Уильям Тёрнер / Mr. Turner- Производство: Великобритания, Франция, Германия
Год выпуска: 2014 г.
Жанр: драма, биография, история
Продолжительность: 02:30:01
Мировая премьера: 15 мая 2014-Перевод: Субтитры
Оригинальный аудиопоток: английский-Режиссер: Майк Ли / Mike Leigh
В ролях: Тимоти Сполл, Пол Джессон, Дороти Эткинсон, Мэрион Бэйли, Карл Джонсон, Рут Шин, Сэнди Фостер, Эми Доусон, Лесли Мэнвилл, Мартин Сэвадж-Описание: История жизни и творчества британского живописца Уильяма Тёрнера.--Качество видео: HDRip
Контейнер: AVI
Видео кодек: XviD
Аудио кодек: AC3
Видео: 720x304 (2.37:1), 23.976 fps, XviD MPEG-4 ~1622 kbps avg, 0.31 bit/pixel
Аудио: English: 48 kHz, AC3 Dolby Digital, 3/2 (L,C,R,l,r) + LFE ch, ~448 kbps
Cубтитры: Русские (вшитые)-

Media Info

General
Complete name : D:\Mr.Turner.2014.HDRip.2.18GB.SUB.avi
Format : AVI
Format/Info : Audio Video Interleave
Format profile : OpenDML
File size : 2.18 GiB
Duration : 2h 30mn
Overall bit rate : 2 078 Kbps
Writing application : VirtualDubMod 1.5.10.2 (build 2540/release)
Video
ID : 0
Format : MPEG-4 Visual
Format profile : Advanced [email protected]
Format settings, BVOP : 2
Format settings, QPel : No
Format settings, GMC : No warppoints
Format settings, Matrix : Default (H.263)
Muxing mode : Packed bitstream
Codec ID : XVID
Codec ID/Hint : XviD
Duration : 2h 30mn
Bit rate : 1 618 Kbps
Width : 720 pixels
Height : 304 pixels
Display aspect ratio : 2.35:1
Frame rate : 23.976 fps
Color space : YUV
Chroma subsampling : 4:2:0
Bit depth : 8 bits
Scan type : Progressive
Compression mode : Lossy
Bits/(Pixel*Frame) : 0.308
Stream size : 1.70 GiB (78%)
Writing library : XviD 64
Audio
ID : 1
Format : AC-3
Format/Info : Audio Coding 3
Mode extension : CM (complete main)
Format settings, Endianness : Big
Codec ID : 2000
Duration : 2h 30mn
Bit rate mode : Constant
Bit rate : 448 Kbps
Channel(s) : 6 channels
Channel positions : Front: L C R, Side: L R, LFE
Sampling rate : 48.0 KHz
Bit depth : 16 bits
Compression mode : Lossy
Stream size : 481 MiB (22%)
Alignment : Split accross interleaves
Interleave, duration : 42 ms (1.00 video frame)
Interleave, preload duratio : 500 ms
-Скриншоты:--
Яндекс.Метрика
Рейтинг@Mail.ru