[ Сегодня на трекере фрилич! Идет свободное скачивание без начисления Download ]

Телохранители и убийцы / Shi yue wei cheng (Тедди Чан / Teddy Chan) [2009 г., Боевик,Драма,История, BDRip 720p] Dub + Original (Chi) + Sub (Eng)

 

Создавать темы 25-Мар-2015 05:15

-Телохранители и убийцы / Shi yue wei cheng-- Производство: Китай, Гонконг
Год выпуска: 2009 г.
Жанр: Боевик,Драма,История
Продолжительность: 02:18:29
Мировая премьера: 18 декабря 2009
Российская премьера: 5 августа 2010, «Кино без границ»
Дата выхода DVD: 18 ноября 2010, «Новый Диск»
Перевод: Профессиональный (полное дублирование)
Оригинальный аудиопоток: Китайский
Режиссер: Тедди Чан / Teddy Chan-В ролях: Донни Ен, Леон Лай, Ван Сюэци, Тони Люн Ка Фай, Николас Тсе, Ху Цзюнь, Ли Юйчунь, Эрик Цан, Саймон Ям, Фань Бинбин-Описание: В 1905 году Сунь Ятсен, собирается посетить Гонконг, чтобы обсудить планы революции и свержения династии Цин с товарищами из организации Тунмэнхой. Вдовствующая императрица Цыси, находящаяся у власти, посылает группу убийц во главе с Ян Сяого помешать Сунь Вэню. С другой стороны, Сунь Вэня защищают телохранители - рикши, уличные торговцы, бродяги, которых организовывает бизнесмен Ли Юйтан. Его сын Ли Чунгуан берет на себя роль двойника Сунь Вэня, чтобы отвлечь убийц от настоящего и дать ему возможность беспрепятственно провести встречу и покинуть Гонконг.-Качество видео: BDRip(720p)
Контейнер: MKV
Видео кодек: MPEG4 AVC
Аудио кодек: AC3
Видео: AVC at 6545 Кбит/сек : 1280 x 548 at 24.000 fps
Аудио: AC-3 at 448 Кбит/сек : 6 каналов, 48,0 КГц : ru
Аудио #2: DTS at 1509 Кбит/сек : 6 каналов, 48,0 КГц : zh
Cубтитры: Русские, Английские
Доп. информация о субтитрах: Отключаемые

Media Info

Общее
Уникальный идентификатор : 195181224726731404588156903685071578127 (0x92D68959EBD3D5BBBF05DB7875D4240F)
Полное имя : D:\Раздача\загрузки\Bodyguards.And.Assassins.2009.720p.BluRay..mkv
Формат : Matroska
Версия формата : Version 2
Размер файла : 8,39 Гбайт
Продолжительность : 2 ч. 18 м.
Общий поток : 8674 Кбит/сек
Название фильма : -Talian-
Дата кодирования : UTC 2011-04-18 15:09:19
Программа кодирования : mkvmerge v3.3.0 ('Language') сборка от May 14 2010 17:11:50
Библиотека кодирования : libebml v0.8.0 + libmatroska v0.9.0
Видео
Идентификатор : 1
Формат : AVC
Формат/Информация : Advanced Video Codec
Профиль формата : [email protected]
Параметр CABAC формата : Да
Параметр ReFrames формата : 8 кадров
Идентификатор кодека : V_MPEG4/ISO/AVC
Продолжительность : 2 ч. 18 м.
Битрейт : 6545 Кбит/сек
Ширина : 1280 пикселей
Высота : 548 пикселей
Соотношение сторон : 2,35:1
Режим частоты кадров : Постоянный
Частота кадров : 24,000 кадра/сек
Цветовое пространство : YUV
Субдискретизация насыщенности : 4:2:0
Битовая глубина : 8 бит
Тип развёртки : Прогрессивная
Бит/(Пиксели*Кадры) : 0.389
Размер потока : 6,33 Гбайт (75%)
Заголовок : Bodyguards.And.Assassins.2009.720p.BluRay.DTS.x264-EbP
Язык : English
Default : Нет
Forced : Нет
Аудио #1
Идентификатор : 2
Формат : AC-3
Формат/Информация : Audio Coding 3
Расширение режима : CM (complete main)
Параметр Endianness формата : Big
Идентификатор кодека : A_AC3
Продолжительность : 2 ч. 18 м.
Вид битрейта : Постоянный
Битрейт : 448 Кбит/сек
Каналы : 6 каналов
Расположение каналов : Front: L C R, Side: L R, LFE
Частота : 48,0 КГц
Битовая глубина : 16 бит
Метод сжатия : С потерями
Размер потока : 444 Мбайт (5%)
Заголовок : DUB
Язык : Russian
Default : Да
Forced : Нет
Аудио #2
Идентификатор : 3
Формат : DTS
Формат/Информация : Digital Theater Systems
Режим : 16
Параметр Endianness формата : Big
Идентификатор кодека : A_DTS
Продолжительность : 2 ч. 18 м.
Вид битрейта : Постоянный
Битрейт : 1509 Кбит/сек
Каналы : 6 каналов
Расположение каналов : Front: L C R, Side: L R, LFE
Частота : 48,0 КГц
Битовая глубина : 24 бит
Метод сжатия : С потерями
Размер потока : 1,46 Гбайт (17%)
Заголовок : Original
Язык : Chinese
Default : Нет
Forced : Нет
Текст #1
Идентификатор : 4
Формат : UTF-8
Идентификатор кодека : S_TEXT/UTF8
Идентификатор кодека/Информация : UTF-8 Plain Text
Заголовок : Sub
Язык : Russian
Default : Нет
Forced : Нет
Текст #2
Идентификатор : 5
Формат : UTF-8
Идентификатор кодека : S_TEXT/UTF8
Идентификатор кодека/Информация : UTF-8 Plain Text
Заголовок : Sub
Язык : English
Default : Нет
Forced : Нет
Меню
00:00:00.000 : en:00:00:00.000
00:04:31.041 : en:00:04:31.041
00:11:41.291 : en:00:11:41.291
00:19:43.458 : en:00:19:43.458
00:25:28.208 : en:00:25:28.208
00:32:45.958 : en:00:32:45.958
00:41:25.666 : en:00:41:25.666
00:48:39.166 : en:00:48:39.166
00:55:56.125 : en:00:55:56.125
01:01:55.208 : en:01:01:55.208
01:09:57.041 : en:01:09:57.041
01:18:04.916 : en:01:18:04.916
01:22:12.250 : en:01:22:12.250
01:29:00.666 : en:01:29:00.666
01:37:09.000 : en:01:37:09.000
01:43:37.708 : en:01:43:37.708
01:47:23.250 : en:01:47:23.250
01:55:57.833 : en:01:55:57.833
02:04:49.916 : en:02:04:49.916
02:12:42.416 : en:02:12:42.416

Скриншоты

Яндекс.Метрика
Рейтинг@Mail.ru