[ Сегодня на трекере фрилич! Идет свободное скачивание без начисления Download ]

Существует / Exists (2014) WEB-DL [H.264/720p-LQ] [VO]

 

Создавать темы 25-Мар-2015 00:20

-Существует / Exists (2014) WEB-DL [H.264/720p-LQ] - Производство: США, Court Five Productions, Haxan Films, Miscellaneous Entertainment
Жанр: Ужасы
Режиссер: Эдуардо Санчес
Актеры: Мэдисон Бёрдж, Брайан Стил, Денис Уильямсон, Сэмюэл Дэвис, Роджер Эдвардс, Крис Осборн
Описание фильма:
Компании друзей, проживающих в Соединенных Штатах Америки, жутко наскучили однообразные походы в клубы, дискотеки, бары с неизменными литрами алкоголя. Ребята решили испытать на себе, что значит находиться вдали от цивилизации. Место отдыха тщательно отбиралось. Главные герои, наконец, пришли к выводу, что лучшим вариантом станут лесные просторы Техаса, расположенные вдали от всех населенных пунктов. Отправившись туда, друзья были приятно удивлены красотой и чистотой. Но ребята даже не подозревали, что вовсе не одни среди бескрайних лесов. Жуткие легенды о снежном человеке имеют реальную подоплеку. Кровожадному существу не нравится вторжение на его территорию

Дата мировой премьеры: 7 марта 2014
Продолжительность: 01:20:57
Качество видео: WEB-DL
Перевод: Одноголосый закадровый, любительский
Озвучка / Автор перевода: Максим Логинофф
Субтитры: Вшитые (отключаемые)
Язык субтитров: Английские
Видеокодек: AVC/H.264
Битрейт видео: ~3921 Кбит/с
Размер кадра: 1280x718
Аудио 1: Русский AC3, 2 ch, 192 Кбит/с
Аудио 2: Английский AC3, 6 ch, 384 Кбит/с-

MediaInfo:

General
Complete name : O:\Exists.2014.WEB-DL.720p.mkv
Format : Matroska
File size : 2.60 GiB
Duration : 1h 20mn
Overall bit rate : 4 589 Kbps
Encoded date : UTC 2014-11-16 12:57:24
Writing application : mkvmerge v7.3.0 ('Nouages') 64bit built on Oct 22 2014 18:53:34
Writing library : libebml v1.3.0 + libmatroska v1.4.1
Video
ID : 1
Format : AVC
Format/Info : Advanced Video Codec
Format profile : [url=mailto:[email protected]][email protected][/url]
Format settings, CABAC : No
Format settings, ReFrames : 2 frames
Muxing mode : Container [email protected]
Codec ID : V_MPEG4/ISO/AVC
Duration : 1h 20mn
Bit rate : 3 921 Kbps
Width : 1 280 pixels
Height : 718 pixels
Display aspect ratio : 16:9
Frame rate : 23.976 fps
Resolution : 8 bits
Colorimetry : 4:2:0
Scan type : Progressive
Bits/(Pixel*Frame) : 0.178
Stream size : 2.22 GiB (85%)
Color primaries : BT.709-5, BT.1361, IEC 61966-2-4, SMPTE RP177
Transfer characteristics : BT.709-5, BT.1361
Matrix coefficients : BT.709-5, BT.1361, IEC 61966-2-4 709, SMPTE RP177
Audio #1
ID : 2
Format : AC-3
Format/Info : Audio Coding 3
Codec ID : A_AC3
Duration : 1h 20mn
Bit rate mode : Constant
Bit rate : 192 Kbps
Channel(s) : 2 channels
Channel positions : L R
Sampling rate : 48.0 KHz
Stream size : 111 MiB (4%)
Title : Максим Логинофф
Language : Russian
Audio #2
ID : 3
Format : AC-3
Format/Info : Audio Coding 3
Codec ID : A_AC3
Duration : 1h 20mn
Bit rate mode : Constant
Bit rate : 384 Kbps
Channel(s) : 6 channels
Channel positions : Front: L C R, Surround: L R, LFE
Sampling rate : 48.0 KHz
Stream size : 222 MiB (8%)
Text #1
ID : 4
Format : UTF-8
Codec ID : S_TEXT/UTF8
Codec ID/Info : UTF-8 Plain Text
Language : Russian
Text #2
ID : 5
Format : UTF-8
Codec ID : S_TEXT/UTF8
Codec ID/Info : UTF-8 Plain Text
Menu
00:00:00.000 : en:Chapter 1
00:09:47.000 : en:Chapter 2
00:19:21.000 : en:Chapter 3
00:28:12.000 : en:Chapter 4
00:39:16.000 : en:Chapter 5
00:49:12.000 : en:Chapter 6
00:58:51.000 : en:Chapter 7
01:07:35.000 : en:Chapter 8
01:17:04.000 : en:Chapter 9
-Скриншоты:
Яндекс.Метрика
Рейтинг@Mail.ru