Д'Артаньян и три мушкетера (1979) DVDRip

 

Создавать темы 24-Мар-2015 22:48

Информация о фильме
Название: Д'Артаньян и три мушкетера
Год выхода: 1979
Жанр: Приклюения, Музыкальный
Продолжительность: 04:08:36
Режиссер: Георгий Юнгвальд-Хилькевич
Сценарий: Марк Розовский
Композитор: Максим Дунаевский
В ролях:
Михаил Боярский, Игорь Старыгин, Вениамин Смехов, Валентин Смирнитский, Лев Дуров, Олег Табаков, Алиса Фрейндлих, Маргарита Терехова, Елена Цыплакова, Ирина Алферова, Юрий Шерстнев, Александр Трофимов, Борис Клюев, Юрий Дубровин, Леонид Каневский, Инга Третьякова, Владимир Балон, Алексей Кузнецов, Анатолий Ходюшин, Иосиф Кринский, Ольга Матешко, Мария Ярыгина, Евгений Данчевский, Владимир Долинский, Виктор Павловский, Валентина Клименко, Геннадий Макоев, Елена Мелентьева, Валентин Букин, Георгий Юнгвальд-Хилькевич
О фильме: Четверо друзей-мушкетеров спасают честь королевы Франции, вступают в единоборство со всесильным кардиналом Ришелье и коварной Миледи, а главное - наслаждаются жизнью...
Доп.информация: Данный рип 3-х-скрийного фильма сделан одним файлом. Исходник - второе TWISTER-овское издание DVD9+DVD5 (коллекционное издание). Фильм выпускался на DVD целых 5 раз
Страна: СССР
Студия: Одесская киностудия
Перевод: Не требуется (оригинальный)
Файл
Формат: avi
Качество: DVDRip (DVD9+DVD5)
Видео: XviD, 672x512, 25fps, 1277kbps
Аудио: AC3 Dolby Digital, 6ch, 48000Hz, 384kbps

MediaInfo

General
Complete name : Dartanyan.I.Tri.Mushketera.1979.O.DVDRip.2800.MediaClub.CurHaJI.avi
Format : AVI
Format/Info : Audio Video Interleave
Format profile : OpenDML
File size : 2.90 GiB
Duration : 4h 8mn
Overall bit rate : 1 672 Kbps
Movie name : Dartanyan.I.Tri.Mushketera.1979.O.DVDRip.2800.MediaClub.CurHaJI
Writing application : Lavf53.13.0
Writing library : VirtualDub build 35491/release
Video
ID : 0
Format : MPEG-4 Visual
Format profile : Advanced [email protected]
Format settings, BVOP : 1
Format settings, QPel : No
Format settings, GMC : No warppoints
Format settings, Matrix : Custom
Codec ID : XVID
Codec ID/Hint : XviD
Duration : 4h 8mn
Bit rate : 1 277 Kbps
Width : 672 pixels
Height : 512 pixels
Display aspect ratio : 4:3
Frame rate : 25.000 fps
Color space : YUV
Chroma subsampling : 4:2:0
Bit depth : 8 bits
Scan type : Progressive
Compression mode : Lossy
Bits/(Pixel*Frame) : 0.148
Stream size : 2.22 GiB (76%)
Writing library : XviD 1.2.1 (UTC 2008-12-04)
Audio
ID : 1
Format : AC-3
Format/Info : Audio Coding 3
Mode extension : CM (complete main)
Format settings, Endianness : Big
Codec ID : 2000
Duration : 4h 8mn
Bit rate mode : Constant
Bit rate : 384 Kbps
Channel(s) : 6 channels
Channel positions : Front: L C R, Side: L R, LFE
Sampling rate : 48.0 KHz
Bit depth : 16 bits
Compression mode : Lossy
Stream size : 683 MiB (23%)
Alignment : Aligned on interleaves
Interleave, duration : 40 ms (1.00 video frame)
Interleave, preload duration : 512 ms

Скриншоты:

Яндекс.Метрика
Рейтинг@Mail.ru