[ Сегодня на трекере фрилич! Идет свободное скачивание без начисления Download ]

Metallica: The Videos 1989-2004 (2006) DVD9

 

Создавать темы 24-Мар-2015 19:13

Информация о диске
Оригинальное название: Metallica: The Videos 1989-2004
Год выхода: 2006
Жанр: музыка
Режиссер: Пол Андресен, Сэмюэл Байер, Антон Корбейн и др.
В ролях: Тимоти Боттомс, Марианна Фэйтфулл, Кирк Хеммет, Джеймс Хетфилд, Майкл Кэмен, Джинджер Линн Аллен, Джейсон Ньюстед, Джейсон Робардс, Марк Стегер, Кемден Той
О диске:
5 декабря 2006 года в Северной Америке (а днем ранее - во всех остальных странах) появился в продаже DVD коллектива METALLICA - "The Videos 1989-2004", который содержит все когда-либо снятые промо-видеоклипы группы. Комментарий группы: "В течение долгого времени к нам приходили просьбы издать все промо-видеоклипы на DVD, и это, наконец, свершилось! В добавок ко всем видео, которые мы когда-либо снимали, к диску впервые прилагается клип "2 of One" (до этого доступный лишь в формате VHS). Также добавлен клип "Mama Said", никогда не запускавшийся в ротацию в Северной Америке, и, возможно, даже во всем остальном мире, и кое-какие дополнительные материалы - театрализованная версия "The Unforgiven" и трейлер фильма "Some Kind Of Monster". Плюс ко всему, звуковые дорожки были пересведены в формате звучания 5.1 surround."

Треклист

01. One
02. Enter Sandman
03. The Unforgiven
04. Nothing Else Matters
05. Wherever I May Roam
06. Sad But True
07. Until It Sleeps
08. Hero Of The Day
09. Mama Said
10. King Nothing
11. The Memory Remains
12. The Unforgiven II
13. Fuel
14. Turn The Page
15. Whiskey In The Jar
16. No Leaf Clover
17. I Disappear
18. St. Anger
19. Frantic
20. The Unnamed Feeling
21. Some Kind Of Monster
Bonus:
22. 2 Of One - introduction
23. One (Jammin` version)
24. The Unforgiven (theatrical version)
25. Metallica: Some Kind Of Monster (film trailer)

Страна: США
Студия: E/M Ventures, Elektra Entertainment
Продолжительность: 141 мин. / 02:21
Перевод: отсутствует
Файл
Кодек: MPEG2
Качество: DVD9
Видео: NTSC 4:3 ([email protected]) VBR 5018 Kbps, 29.970 fps
Аудио 1: Dolby AC3, 6 ch, 48.0 KHz, 448 Kbps
Аудио 2: LPCM 2 ch, 48.0 KHz, 1536 Kbps
Субтитры: отсутствуют

MediaInfo

General
Complete name                  : D:M_V_M_d06VIDEO_TSVTS_01_1.VOB
Format                         : MPEG-PS
File size                      : 1 024 MiB
Duration                       : 20mn 2s
Overall bit rate mode          : Variable
Overall bit rate               : 7 145 Kbps
Video
ID                             : 224 (0xE0)
Format                         : MPEG Video
Format version                 : Version 2
Format profile                 : [email protected]
Format settings, BVOP          : Yes
Format settings, Matrix        : Custom
Format settings, GOP           : M=3, N=15
Format settings, picture struc : Frame
Duration                       : 20mn 2s
Bit rate mode                  : Variable
Bit rate                       : 5 018 Kbps
Maximum bit rate               : 7 700 Kbps
Width                          : 720 pixels
Height                         : 480 pixels
Display aspect ratio           : 4:3
Frame rate                     : 29.970 fps
Standard                       : NTSC
Color space                    : YUV
Chroma subsampling             : 4:2:0
Bit depth                      : 8 bits
Scan type                      : Interlaced
Scan order                     : Top Field First
Compression mode               : Lossy
Bits/(Pixel*Frame)             : 0.485
Time code of first frame       : 00:59:58:00
Time code source               : Group of pictures header
GOP, Open/Closed               : Closed
Stream size                    : 719 MiB (70%)
Audio #1
ID                             : 189 (0xBD)-129 (0x81)
Format                         : AC-3
Format/Info                    : Audio Coding 3
Mode extension                 : CM (complete main)
Format settings, Endianness    : Big
Muxing mode                    : DVD-Video
Duration                       : 20mn 2s
Bit rate mode                  : Constant
Bit rate                       : 448 Kbps
Channel(s)                     : 6 channels
Channel positions              : Front: L C R, Side: L R, LFE
Sampling rate                  : 48.0 KHz
Bit depth                      : 16 bits
Compression mode               : Lossy
Stream size                    : 64.2 MiB (6%)
Audio #2
ID                             : 189 (0xBD)-160 (0xA0)
Format                         : PCM
Format settings, Endianness    : Big
Format settings, Sign          : Signed
Muxing mode                    : DVD-Video
Duration                       : 20mn 2s
Bit rate mode                  : Constant
Bit rate                       : 1 536 Kbps
Channel(s)                     : 2 channels
Sampling rate                  : 48.0 KHz
Bit depth                      : 16 bits
Stream size                    : 220 MiB (21%)
Menu
-

Скриншоты

-
Яндекс.Метрика
Рейтинг@Mail.ru