[ Сегодня на трекере фрилич! Идет свободное скачивание без начисления Download ]

(Pop) Филипп Киркоров - Лучшие песни - 2003, FLAC (image+.cue), lossless

 

Создавать темы 24-Мар-2015 18:01

-Филипп Киркоров - Лучшие песни- Жанр: Pop
Страна-производитель диска: Украина
Год издания: 2003
Издатель (лейбл): © Студия ЗВУК, © RONEe`S, © АСТРА
Аудиокодек: FLAC (*.flac)
Тип рипа: image+.cue
Битрейт аудио: lossless
Продолжительность: 01:18:05
Источник (релизер): STOJAK
Наличие сканов в содержимом раздачи: да (PNG)-Треклист:
01. "Роза чайная [Дуэт с Машей Распутиной] (К. Метов - В. Степанов)"
02. "Дай огня, детка ((Р. Вотс, Р. Линдвал, Л. Мендез, П. Сепада - А. Морсин)"
03. "Ты со мной (Serdar Ortag - Serdar Ortag, Metiv Alorat, А. Морсин)"
04. "Я за тебя умру (Nikos Terrzis, Antonis Pappas - А. Морсин)"
05. "Влюблённый и безумно одинокий (И. Зубков - К. Арсенев)"
06. "Зайки врозь (М. Сончини, И. Альберини - А. Морсин)"
07. "Дива (Jzvika Pick - Yoav Gwar, С. Харин)"
08. "Бегущая по волнам (Вилли Казасян - Илья Резник)"
09. "Огонь и вода (Ара ДИкжан - А. Морсин)"
10. "Ты поверишь? [Оригинальная версия] (Д. Ремешевский, А. Ружицкий)"
11. "Чили ча ча [Оригинальная версия] (M. Farina, R. Arduini, A. Puntillo - А. Морсин)"
12. "Радио - бейби (К. Брейтбург - К. Кавалерян)"
13. "Шёлковая нить (A. Marco, Cavtells, J. Bawel - J. Bawel, B. Liaves, G. Swque, ..."
14. "Загляни в мои глаза (Сюзанна Теппер - Татьяна Лебединская)"
15. "Океан и пальма (З. Ди Комарго - А. Морсин)"
16. "Ой, мама, шика дам ! (Sezev Aksu - Sezev Aksu, А. Морсин)"
17. "Марина (Александр Лукьянов - Сергей Таратута)"
18. "Синдбад - мореход (Т. Русев - И. Резник)"
19. "Килиманджаро [Оригинальная версия] (Музыка и слова Ким Брейтбург)"
20. "Атлантида (А. Лукьянов - Л. Дербенёв)"

Отчёт EAC

Exact Audio Copy V1.0 beta 2 from 29. April 2011
Отчёт EAC об извлечении, выполненном 25. мая 2012, 23:07
Филипп Киркоров / Лучшие песни
Дисковод: Optiarc DVD RW AD-7190A   Adapter: 0  ID: 0
Режим чтения                 : Достоверность
Использование точного потока : Да
Отключение кэша аудио        : Да
Использование указателей C2  : Нет
Коррекция смещения при чтении                     : 6
Способность читать области Lead-in и Lead-out     : Нет
Заполнение пропущенных сэмплов тишиной            : Да
Удаление блоков с тишиной в начале и конце        : Нет
При вычислениях CRC использовались нулевые сэмплы : Да
Интерфейс                                         : Встроенный Win32-интерфейс для Win NT/2000
Выходной формат : Внутренние WAV-операции
Формат сэмплов  : 44.100 Гц; 16 бит; стерео
TOC извлечённого CD
     Трек |   Старт  | Длительность | Начальный сектор | Конечный сектор
    ---------------------------------------------------------------------
       1  |  0:00.00 |    4:19.27   |           0      |      19451
       2  |  4:19.27 |    4:36.41   |       19452      |      40192
       3  |  8:55.68 |    4:09.54   |       40193      |      58921
       4  | 13:05.47 |    3:27.46   |       58922      |      74492
       5  | 16:33.18 |    3:26.64   |       74493      |      90006
       6  | 20:00.07 |    3:37.51   |       90007      |     106332
       7  | 23:37.58 |    3:29.67   |      106333      |     122074
       8  | 27:07.50 |    4:07.17   |      122075      |     140616
       9  | 31:14.67 |    3:11.70   |      140617      |     155011
      10  | 34:26.62 |    3:58.46   |      155012      |     172907
      11  | 38:25.33 |    4:35.40   |      172908      |     193572
      12  | 43:00.73 |    3:42.12   |      193573      |     210234
      13  | 46:43.10 |    4:24.73   |      210235      |     230107
      14  | 51:08.08 |    4:51.38   |      230108      |     251970
      15  | 55:59.46 |    4:01.72   |      251971      |     270117
      16  | 60:01.43 |    3:42.16   |      270118      |     286783
      17  | 63:43.59 |    3:20.51   |      286784      |     301834
      18  | 67:04.35 |    3:43.41   |      301835      |     318600
      19  | 70:48.01 |    3:33.65   |      318601      |     334640
      20  | 74:21.66 |    3:43.09   |      334641      |     351374
Характеристики диапазона извлечения и сообщения об ошибках
Выбранный диапазон
     Имя файла J:\ОТЕЧЕСТВЕННАЯ POP - МУЗЫКА\КИРКОРОВ ФИЛИПП © [Дискография]\КИРКОРОВ ФИЛИПП (с) 2003 [Лучшие песни]\Филипп Киркоров - Лучшие песни.wav
     Пиковый уровень 96.9 %
     Скорость извлечения 1.5 X
     Качество диапазона 100.0 %
     CRC теста 7BF27D40
     CRC копии 7BF27D40
     Копирование... OK
Ошибок не произошло
AccurateRip: сводка
Трек  1  отсутствует в базе данных
Трек  2  отсутствует в базе данных
Трек  3  отсутствует в базе данных
Трек  4  отсутствует в базе данных
Трек  5  отсутствует в базе данных
Трек  6  отсутствует в базе данных
Трек  7  отсутствует в базе данных
Трек  8  отсутствует в базе данных
Трек  9  отсутствует в базе данных
Трек 10  отсутствует в базе данных
Трек 11  отсутствует в базе данных
Трек 12  отсутствует в базе данных
Трек 13  отсутствует в базе данных
Трек 14  отсутствует в базе данных
Трек 15  отсутствует в базе данных
Трек 16  отсутствует в базе данных
Трек 17  отсутствует в базе данных
Трек 18  отсутствует в базе данных
Трек 19  отсутствует в базе данных
Трек 20  отсутствует в базе данных
Ни одного трека нет в базе AccurateRip
Конец отчёта
==== Контрольная сумма отчёта 9C019EED1C20504261873634EC3F00C6B2CAD9793753D3982A625E4F826D8979 ====
-
Яндекс.Метрика
Рейтинг@Mail.ru