Natan feat. Тимати - Дерзкая (2015) Master 1080p | 60 fps

 

Создавать темы 23-Мар-2015 23:23

Natan feat. Тимати - Дерзкая (2015) Master 1080p | 60 fps
Информация о Клипе:
Исполнители:Natan feat. Тимати
Название:Дерзкая
Год выпуска: 2015г.
Жанр: Rap, Hip-Hop
Страна: Россия
Продолжительность: 03.10мин
Файл:
Формат видео: MKV
Качество видео: Master 1080p | 60fps
Видео кодек: H.264
Аудио кодек: AC3
Видео: 1916x1010 | 60,000 кадров/сек | 10,8 Мбит/сек
Аудио: AC3 | 2 channels | 48 kHz |384 Кбит/сек

Отчёт MediaInfo

Видео
Идентификатор : 1
Формат : AVC
Формат/Информация : Advanced Video Codec
Профиль формата : [email protected]
Параметр CABAC формата : Да
Параметр ReFrames формата : 4 кадра
Идентификатор кодека : V_MPEG4/ISO/AVC
Продолжительность : 3 м. 10 с.
Битрейт : 10,8 Мбит/сек
Ширина : 1916 пикселей
Высота : 1010 пикселей
Соотношение сторон : 1,897
Режим частоты кадров : Постоянный
Частота кадров : 60,000 кадров/сек
Цветовое пространство : YUV
Субдискретизация насыщенности : 4:2:0
Битовая глубина : 8 бит
Тип развёртки : Прогрессивная
Бит/(Пиксели*Кадры) : 0.093
Размер потока : 240 Мбайт (95%)
Заголовок : Rip By Kamikkadze(Специально для проекта 60-fps)
Библиотека кодирования : x264 core 130 r2273 b3065e6
Настройки программы : cabac=1 / ref=3 / deblock=1:0:0 / analyse=0x3:0x113 / me=hex / subme=7 / psy=1 / psy_rd=1.00:0.00 / mixed_ref=1 / me_range=16 / chroma_me=1 / trellis=1 / 8x8dct=1 / cqm=0 / deadzone=21,11 / fast_pskip=1 / chroma_qp_offset=-2 / threads=6 / lookahead_threads=1 / sliced_threads=0 / nr=0 / decimate=1 / interlaced=0 / bluray_compat=0 / constrained_intra=0 / bframes=3 / b_pyramid=2 / b_adapt=1 / b_bias=0 / direct=1 / weightb=1 / open_gop=0 / weightp=2 / keyint=250 / keyint_min=25 / scenecut=40 / intra_refresh=0 / rc_lookahead=40 / rc=abr / mbtree=1 / bitrate=10800 / ratetol=1.0 / qcomp=0.60 / qpmin=0 / qpmax=69 / qpstep=4 / ip_ratio=1.40 / aq=1:1.00
Язык : Russian
Default : Да
Forced : Нет
Аудио
Идентификатор : 2
Формат : AC-3
Формат/Информация : Audio Coding 3
Расширение режима : CM (complete main)
Параметр Endianness формата : Big
Идентификатор кодека : A_AC3
Продолжительность : 3 м. 10 с.
Вид битрейта : Постоянный
Битрейт : 384 Кбит/сек
Каналы : 2 канала
Расположение каналов : Front: L R
Частота : 48,0 КГц
Битовая глубина : 16 бит
Метод сжатия : С потерями
Размер потока : 8,73 Мбайт (3%)
Язык : Russian
Default : Да
Forced : Нет

Скриншоты

Яндекс.Метрика
Рейтинг@Mail.ru