Интерстеллар / Interstellar (2014) BDRemux [1080p] [IMAX Edition]

 

Создавать темы 23-Мар-2015 01:55

-Интерстеллар / Interstellar (2014) BDRemux [IMAX Edition]- Производство: США, Великобритания, Канада
Жанр: Фантастика, Драма, Приключения
Режиссер: Кристофер Нолан
Актеры: Мэттью МакКонахи, Энн Хэтэуэй, Джессика Честейн, Маккензи Фой, Майкл Кейн, Дэвид Гяси, Уэс Бентли, Кейси Аффлек, Джон Литгоу, Мэтт Дэймон, Тофер Грэйс, Эллен Бёрстин
Описание фильма:
Когда засуха приводит человечество к продовольственному кризису, коллектив исследователей и учёных отправляется сквозь червоточину (которая предположительно соединяет области пространства-времени через большое расстояние) в путешествие, чтобы превзойти прежние ограничения для космических путешествий человека и переселить человечество на другую планету.

Дата мировой премьеры: 26 октября 2014
Дата российской премьеры: 6 ноября 2014, «Каро-Премьер»
Дата выхода DVD/Blu-ray релиза: 9 апреля 2015, «CP Дистрибуция»
Продолжительность: 02:49:03
Качество видео: BDRemux [1080p]
Перевод: Дублированный (Лицензия), Многоголосый закадровый, Одноголосый закадровый
Язык субтитров: Русские (форсированные), Русские (полные), Английские
Вид субтитров: Вшитые отключаемые
Видео: MPEG-4 AVC/H.264, ~24222 kbps, 1920х1080
Аудио 1: AC3 5.1, 640 kbps, 48 kHz [Русский - лицензия, дублированный]
Аудио 2: DTS 5.1, 1536 kbps, 48 kHz, 24 bit [Русский - студия «Омикрон», многоголосый закадровый]
Аудио 3: DTS 5.1, 1536 kbps, 48 kHz, 24 bit [Русский - Д.Есарев, одноголосый закадровый]
Аудио 4: DTS-HD MA 5.1, 3693 kbps, 48 kHz, 24 bit [Английский]

MediaInfo:

Общее
Уникальный идентификатор : 194285608228845009023806664570193530955 (0x922A0C0C760D919CB20BF27501E3504B)
Полное имя : ...\Интерстеллар-Interstellar.2014.BDRemux.mkv
Формат : Matroska
Версия формата : Version 4 / Version 2
Размер файла : 37,3 Гбайт
Продолжительность : 2 ч. 49 м.
Режим общего битрейта : Переменный
Общий поток : 31,6 Мбит/сек
Дата кодирования : UTC 2015-03-22 22:29:45
Программа кодирования : mkvmerge v7.0.0 ('Where We Going') 64bit built on Jun 9 2014 15:16:27
Библиотека кодирования : libebml v1.3.0 + libmatroska v1.4.1
DURATION : 02:17:59.866000000
NUMBER_OF_FRAMES : 7
NUMBER_OF_BYTES : 383
_STATISTICS_WRITING_APP : mkvmerge v7.0.0 ('Where We Going') 64bit built on Jun 9 2014 15:16:27
_STATISTICS_WRITING_DATE_UTC : 2015-03-22 22:29:45
_STATISTICS_TAGS : BPS DURATION NUMBER_OF_FRAMES NUMBER_OF_BYTES
Видео
Идентификатор : 1
Формат : AVC
Формат/Информация : Advanced Video Codec
Профиль формата : [url=mailto:[email protected]][email protected][/url]
Параметр CABAC формата : Да
Параметр ReFrames формата : 2 кадра
Параметр GOP формата : M=1, N=10
Идентификатор кодека : V_MPEG4/ISO/AVC
Продолжительность : 2 ч. 49 м.
Вид битрейта : Переменный
Ширина : 1920 пикселей
Высота : 1080 пикселей
Соотношение сторон : 16:9
Режим частоты кадров : Постоянный
Частота кадров : 23,976 кадра/сек
Цветовое пространство : YUV
Субдискретизация насыщенности : 4:2:0
Битовая глубина : 8 бит
Тип развёртки : Прогрессивная
Язык : English
Default : Да
Forced : Нет
Аудио #1
Идентификатор : 2
Формат : AC-3
Формат/Информация : Audio Coding 3
Расширение режима : CM (complete main)
Параметр Endianness формата : Big
Идентификатор кодека : A_AC3
Продолжительность : 2 ч. 49 м.
Вид битрейта : Постоянный
Битрейт : 640 Кбит/сек
Каналы : 6 каналов
Расположение каналов : Front: L C R, Side: L R, LFE
Частота : 48,0 КГц
Битовая глубина : 16 бит
Метод сжатия : С потерями
Размер потока : 774 Мбайт (2%)
Заголовок : AC3 5.1 @ 640 kbps - DUB, Blu-ray CEE
Язык : Russian
Default : Да
Forced : Нет
Аудио #2
Идентификатор : 3
Формат : DTS
Формат/Информация : Digital Theater Systems
Режим : 16
Параметр Endianness формата : Big
Идентификатор кодека : A_DTS
Продолжительность : 2 ч. 49 м.
Вид битрейта : Постоянный
Битрейт : 1509 Кбит/сек
Каналы : 6 каналов
Расположение каналов : Front: L C R, Side: L R, LFE
Частота : 48,0 КГц
Битовая глубина : 24 бит
Метод сжатия : С потерями
Размер потока : 1,78 Гбайт (5%)
Заголовок : DTS 5.1 @ 1536 kbps - MVO, OMiCRON
Язык : Russian
Default : Нет
Forced : Нет
Аудио #3
Идентификатор : 4
Формат : DTS
Формат/Информация : Digital Theater Systems
Режим : 16
Параметр Endianness формата : Big
Идентификатор кодека : A_DTS
Продолжительность : 2 ч. 49 м.
Вид битрейта : Постоянный
Битрейт : 1509 Кбит/сек
Каналы : 6 каналов
Расположение каналов : Front: L C R, Side: L R, LFE
Частота : 48,0 КГц
Битовая глубина : 24 бит
Метод сжатия : С потерями
Размер потока : 1,78 Гбайт (5%)
Заголовок : DTS 5.1 @ 1536 kbps - AVO, D.Esarev
Язык : Russian
Default : Нет
Forced : Нет
Аудио #4
Идентификатор : 5
Формат : DTS
Формат/Информация : Digital Theater Systems
Профиль формата : MA / Core
Режим : 16
Параметр Endianness формата : Big
Идентификатор кодека : A_DTS
Продолжительность : 2 ч. 49 м.
Вид битрейта : Переменный
Битрейт : Неизвестно / 1509 Кбит/сек
Каналы : 6 каналов
Расположение каналов : Front: L C R, Side: L R, LFE
Частота : 48,0 КГц
Битовая глубина : 24 бит
Метод сжатия : Без потерь / Lossy
Заголовок : DTS HD-MA 5.1 @ 3694 kbps - Original
Язык : English
Default : Нет
Forced : Нет
Текст #1
Идентификатор : 6
Формат : UTF-8
Идентификатор кодека : S_TEXT/UTF8
Идентификатор кодека/Информация : UTF-8 Plain Text
Заголовок : forced
Язык : Russian
Default : Да
Forced : Да
Текст #2
Идентификатор : 7
Формат : UTF-8
Идентификатор кодека : S_TEXT/UTF8
Идентификатор кодека/Информация : UTF-8 Plain Text
Язык : Russian
Default : Нет
Forced : Нет
Текст #3
Идентификатор : 8
Формат : UTF-8
Идентификатор кодека : S_TEXT/UTF8
Идентификатор кодека/Информация : UTF-8 Plain Text
Язык : English
Default : Нет
Forced : Нет
Меню
00:00:00.000 : en:00:00:00.000
00:09:35.491 : en:00:09:35.491
00:17:12.322 : en:00:17:12.322
00:25:00.749 : en:00:25:00.749
00:35:45.393 : en:00:35:45.393
00:42:16.867 : en:00:42:16.867
00:50:19.891 : en:00:50:19.891
00:54:48.076 : en:00:54:48.076
00:58:59.702 : en:00:58:59.702
01:06:15.012 : en:01:06:15.012
01:17:28.185 : en:01:17:28.185
01:25:32.001 : en:01:25:32.001
01:34:31.999 : en:01:34:31.999
01:46:14.701 : en:01:46:14.701
01:55:34.552 : en:01:55:34.552
02:02:14.368 : en:02:02:14.368
02:12:56.843 : en:02:12:56.843
02:20:53.820 : en:02:20:53.820
02:35:12.094 : en:02:35:12.094
02:43:59.830 : en:02:43:59.830
Скриншоты:
Яндекс.Метрика
Рейтинг@Mail.ru