[ Сегодня на трекере фрилич! Идет свободное скачивание без начисления Download ]

Честь дракона 2 / Tom yum goong 2 (Прачья Пинкаю / Prachya Pinkaew) [2013, Тайланд, Боевик, DVDRip] VO (Zelesk)

 

Создавать темы 22-Мар-2015 21:27

-Честь дракона 2 / Tom yum goong 2- Страна: Таиланд
Жанр: Боевик
Год выпуска: 2013
Продолжительность: 01:40:06
Перевод: Одноголосый закадровый Zelesk
Cубтитры: нет
Режиссер: Прачья Пинкаю / Prachya Pinkaew
В ролях: Тони Джа, Маррезе Крамп, Йанин Висмитананда, Винс Макилинг, Уджал Тхапа, Эдди Руис, Эдгар Варгас, Джон Данг, Джавед Эль Берни, Рэйден Интегра-Описание:
Влиятельного владельца слоновьего заповедника Сучарта убивает неизвестный эксперт по боевым искусствам, использовавший три удара по смертельным для жизни точкам, и Кхам становится основным подозреваемым в убийстве, так как он был последним, кого видели на месте преступления. Ему пришлось бежать от властей, тем временем за ним начали охоту двойняшки — племянницы Сучарта. К счастью, его выручил сержант Марк, агент Интерпола, присланный из Сиднея для выполнения некоего секретного задания...
Доп. информация:
За перевод и озвучку спасибо - Zelesk, сборка звука 5.1 - danis92
Качество видео: DVDRip (DVD9)
Формат видео: AVI
Видео: 720x304 (2,35:1), 25 fps, XviD ~1631 kbps avg, 0.29 bit/pixel
Аудио: 48 kHz, AC3 Dolby Digital, 3/2 (L,C,R,l,r) + LFE ch, ~448 kbps

MediaInfo

Общее
Полное имя : J:\Chest.drakona.2.2013.DVDRip.VO.Zelesk.avi
Формат : AVI
Формат/Информация : Audio Video Interleave
Размер файла : 1,46 Гбайт
Продолжительность : 1 ч. 40 м.
Общий поток : 2088 Кбит/сек
Программа кодирования : VirtualDubMod 1.5.10.3 (build 2550/release)
Библиотека кодирования : VirtualDubMod build 2550/release
Видео
Идентификатор : 0
Формат : MPEG-4 Visual
Профиль формата : Advanced [email protected]
Параметр BVOP формата : 1
Параметр QPel формата : Нет
Параметр GMC формата : Без точки перехода
Параметр матрицы формата : Выборочная
Идентификатор кодека : XVID
Идентификатор кодека/Подсказка : XviD
Продолжительность : 1 ч. 40 м.
Битрейт : 1631 Кбит/сек
Ширина : 720 пикселей
Высота : 304 пикселя
Соотношение сторон : 2,35:1
Частота кадров : 25,000 кадров/сек
Цветовое пространство : YUV
Субдискретизация насыщенности : 4:2:0
Битовая глубина : 8 бит
Тип развёртки : Прогрессивная
Метод сжатия : С потерями
Бит/(Пиксели*Кадры) : 0.298
Размер потока : 1,14 Гбайт (78%)
Библиотека кодирования : XviD 1.2.0SMP (UTC 2006-01-08)
Аудио
Идентификатор : 1
Формат : AC-3
Формат/Информация : Audio Coding 3
Расширение режима : CM (complete main)
Параметр Endianness формата : Big
Идентификатор кодека : 2000
Продолжительность : 1 ч. 40 м.
Вид битрейта : Постоянный
Битрейт : 448 Кбит/сек
Каналы : 6 каналов
Расположение каналов : Front: L C R, Side: L R, LFE
Частота : 48,0 КГц
Битовая глубина : 16 бит
Метод сжатия : С потерями
Размер потока : 321 Мбайт (21%)
Выравнивание : Разделение по промежуткам
Продолжительность промежутка : 40 мс. (1,00 видеокадр)
Время предзагрузки промежутка : 500 мс.

Скриншоты

Яндекс.Метрика
Рейтинг@Mail.ru