[ Сегодня на трекере фрилич! Идет свободное скачивание без начисления Download ]

Честь дракона / Защитник / The Protector / Tom yum goong (Прачья Пинкаю / Prachya Pinkaew) VO + Original (Tha)

 

Создавать темы 22-Мар-2015 21:15

Честь дракона / Tom yum goong«Vengeance knows no mercy»-- Страна: Таиланд, США, Гонконг
Жанр: боевик, триллер, драма, криминал
Год выхода: 2005
Продолжительность: 01:50:33
Перевод: одноголосый, закадровый
Субтитры: нет
Оригинальная аудиодорожка: тайская
Режиссер: Прачья Пинкаю
В ролях: Тони Джа, Петчтай Вонгкамлао, Бонгкодж Кхонгмалай, Хин Джин, Нэйтан Джонс, Джонни Нгуйен, Латиф Кроудер, Джон Фу, Дэмиан Де Монтема, Дэвид Асаванонд
О фильме: В основе сюжета лежит история о том, как у одной крестьянской семьи из Таиланда перекупщики похитили слона и слоненка, которые были затем нелегально переправлены в Сидней. Молодой парень отправляется в Австралию, где вступает в схватку с преступным синдикатом.

Релиз от -
Автор: Gellard
Сэмпл: скачать
Качество: BDRip (источник: Torrents.ru / Blu-Ray Remux / 1080p)
Формат: AVI
Видео: 704x400 (1.76:1), 23.976 fps, XviD build 65 ~2046 kbps avg, 0.30 bit/pixel
Аудио #1: (VO) 48 kHz, AC3 Dolby Digital, 3/2 (L,C,R,l,r) + LFE ch, 384.00 kbps avg
Аудио #2: (THA) 48 kHz, AC3 Dolby Digital, 3/2 (L,C,R,l,r) + LFE ch, 384.00 kbps avg--

Скриншоты

MediaInfo

General
Complete name                            : Chest.drakona.2005.DUAL.BDRip.XviD.AC3.-HQCLUB.avi
Format                                   : AVI
Format/Info                              : Audio Video Interleave
Format profile                           : OpenDML
File size                                : 2.18 GiB
Duration                                 : 1h 50mn
Overall bit rate                         : 2 822 Kbps
Movie name                               : Честь дракона / Защитник / The Protector / Tom yum goong [Unrated] (2005) BDRip
Director                                 : Gellard
Genre                                    : боевик, триллер, драма
Writing application                      : VirtualDubMod 1.5.10.2 (build 2542/release)
Copyright                                : HQCLUB
Comment                                  : 10.08.2014
Video
ID                                       : 0
Format                                   : MPEG-4 Visual
Format profile                           : Advanced [email protected]
Format settings, BVOP                    : 1
Format settings, QPel                    : No
Format settings, GMC                     : No warppoints
Format settings, Matrix                  : Custom
Codec ID                                 : XVID
Codec ID/Hint                            : XviD
Duration                                 : 1h 50mn
Bit rate                                 : 2 036 Kbps
Width                                    : 704 pixels
Height                                   : 400 pixels
Display aspect ratio                     : 16:9
Frame rate                               : 23.976 fps
Color space                              : YUV
Chroma subsampling                       : 4:2:0
Bit depth                                : 8 bits
Scan type                                : Progressive
Compression mode                         : Lossy
Bits/(Pixel*Frame)                       : 0.302
Stream size                              : 1.57 GiB (72%)
Writing library                          : XviD 65
Audio #1
ID                                       : 1
Format                                   : AC-3
Format/Info                              : Audio Coding 3
Mode extension                           : CM (complete main)
Format settings, Endianness              : Big
Codec ID                                 : 2000
Duration                                 : 1h 50mn
Bit rate mode                            : Constant
Bit rate                                 : 384 Kbps
Channel count                            : 6 channels
Channel positions                        : Front: L C R, Side: L R, LFE
Sampling rate                            : 48.0 KHz
Bit depth                                : 16 bits
Compression mode                         : Lossy
Stream size                              : 304 MiB (14%)
Alignment                                : Split accross interleaves
Interleave, duration                     : 42 ms (1.00 video frame)
Interleave, preload duration             : 500 ms
Audio #2
ID                                       : 2
Format                                   : AC-3
Format/Info                              : Audio Coding 3
Mode extension                           : CM (complete main)
Format settings, Endianness              : Big
Codec ID                                 : 2000
Duration                                 : 1h 50mn
Bit rate mode                            : Constant
Bit rate                                 : 384 Kbps
Channel count                            : 6 channels
Channel positions                        : Front: L C R, Side: L R, LFE
Sampling rate                            : 48.0 KHz
Bit depth                                : 16 bits
Compression mode                         : Lossy
Stream size                              : 304 MiB (14%)
Alignment                                : Split accross interleaves
Interleave, duration                     : 42 ms (1.00 video frame)
Interleave, preload duration             : 500 ms

Создавать темы 22-Мар-2015 21:17 (спустя 1 минута)

Для ценителей муай-тай. Приятного просмотра.
Яндекс.Метрика
Рейтинг@Mail.ru