[ Сегодня на трекере фрилич! Идет свободное скачивание без начисления Download ]

Альфа Дог / Alpha Dog (2005) BDRip 720p | 60fps

 

Создавать темы 22-Мар-2015 21:13

Альфа Дог / Alpha Dog (2005) BDRip 720p | 60fps«Одно преступление. 3 дня. 38 свидетелей»- Год выхода: 2005
Жанр: Драма, криминал, биография
Режиссер: Ник Кассаветис
Продюсер: Сидни Киммел, Чак Пачеко, Мэттью Бэрри
В ролях:
Эмиль Хирш, Антон Ельчин, Джастин Тимберлэйк, Бен Фостер, Шон Хэтоси, Брюс Уиллис, Шэрон Стоун, Хезер Уолкист, Аманда Сайфред, Гарри Дин Стэнтон, Доминик Суэйн, Оливия Уайлд, Дэвид Торнтон, Крис Кинкейд, Крис Маркетт...
Описание фильма:
Для подростков элитных районов Лос-Анджелеса, у которых слишком много времени и слишком много денег, унылые дни тянутся один за другим. Они развлекаются тем, что играют в головорезов и поклоняются рэпу, видеоиграм и кинофильмам. Когда не несешь ни за что ответственности, случиться может все что угодно…
Страна: США
Студия: A-Mark Entertainment, VIP 2 Medienfonds
Продолжительность: 01:57:23
Перевод: Профессиональный (Дублированный)
Субтитры: Вшитые, отключаемые
Язык субтитров: Русский (Full), Английский (Full)
Дата мировой премьеры: 27 января 2006
Дата российской премьеры: 11 января 2007, «Парадиз»
Дата выхода DVD релиза: 14 февраля 2008, «CP-Digital»
Файл
Формат: MKV
Кодек: MPEG-4 AVC/H.264
Качество: BDRip 720p
Видео: ~ 3949 Кбит/сек, 1280 x 552, 60.000 кадров/сек
Аудио: AC3 5.1, 48.0 KHz, 640 Кбит/сек - Русский (Дубляж, R5)

MediaInfo

Общее
Уникальный идентификатор : 203995190102432812930577020415017919227 (0x99780B6532F1B3DAB75E5BF47E12A2FB)
Полное имя : D:\Торренты\Alpha Dog 60fps.mkv
Формат : Matroska
Версия формата : Version 2
Размер файла : 3,84 Гбайт
Продолжительность : 1 ч. 57 м.
Общий поток : 4682 Кбит/сек
Название фильма : Alpha Dog (2006) 1080p BD-Remux
Дата кодирования : UTC 2015-03-22 10:52:06
Программа кодирования : mkvmerge v6.9.1 ('Blue Panther') 64bit built on Apr 18 2014 18:23:38
Библиотека кодирования : libebml v1.3.0 + libmatroska v1.4.1
Видео
Идентификатор : 1
Формат : AVC
Формат/Информация : Advanced Video Codec
Профиль формата : [email protected]
Параметр CABAC формата : Да
Параметр ReFrames формата : 6 кадров
Идентификатор кодека : V_MPEG4/ISO/AVC
Продолжительность : 1 ч. 57 м.
Битрейт : 3949 Кбит/сек
Ширина : 1280 пикселей
Высота : 552 пикселя
Соотношение сторон : 2,35:1
Режим частоты кадров : Постоянный
Частота кадров : 60,000 кадров/сек
Цветовое пространство : YUV
Субдискретизация насыщенности : 4:2:0
Битовая глубина : 8 бит
Тип развёртки : Прогрессивная
Бит/(Пиксели*Кадры) : 0.093
Размер потока : 3,24 Гбайт (84%)
Заголовок : Release by mimok
Библиотека кодирования : x264 core 130 r2273 b3065e6
Настройки программы : cabac=1 / ref=6 / deblock=1:0:0 / analyse=0x3:0x133 / me=umh / subme=8 / psy=1 / psy_rd=1.00:0.15 / mixed_ref=1 / me_range=20 / chroma_me=1 / trellis=2 / 8x8dct=1 / cqm=0 / deadzone=21,11 / fast_pskip=0 / chroma_qp_offset=-3 / threads=6 / lookahead_threads=2 / sliced_threads=0 / nr=0 / decimate=0 / interlaced=0 / bluray_compat=0 / constrained_intra=0 / bframes=8 / b_pyramid=2 / b_adapt=2 / b_bias=0 / direct=1 / weightb=1 / open_gop=0 / weightp=2 / keyint=250 / keyint_min=25 / scenecut=40 / intra_refresh=0 / rc=crf / mbtree=0 / crf=17.5 / qcomp=0.63 / qpmin=10 / qpmax=51 / qpstep=4 / ip_ratio=1.40 / pb_ratio=1.30 / aq=1:1.20
Default : Да
Forced : Нет
Аудио
Идентификатор : 2
Формат : AC-3
Формат/Информация : Audio Coding 3
Расширение режима : CM (complete main)
Параметр Endianness формата : Big
Идентификатор кодека : A_AC3
Продолжительность : 1 ч. 57 м.
Вид битрейта : Постоянный
Битрейт : 640 Кбит/сек
Каналы : 6 каналов
Расположение каналов : Front: L C R, Side: L R, LFE
Частота : 48,0 КГц
Битовая глубина : 16 бит
Метод сжатия : С потерями
Размер потока : 537 Мбайт (14%)
Заголовок : Dub
Язык : Russian
Default : Да
Forced : Нет
Текст #1
Идентификатор : 3
Формат : UTF-8
Идентификатор кодека : S_TEXT/UTF8
Идентификатор кодека/Информация : UTF-8 Plain Text
Заголовок : Full
Язык : Russian
Default : Да
Forced : Нет
Текст #2
Идентификатор : 4
Формат : UTF-8
Идентификатор кодека : S_TEXT/UTF8
Идентификатор кодека/Информация : UTF-8 Plain Text
Заголовок : Full
Язык : English
Default : Нет
Forced : Нет

Скриншоты:

Яндекс.Метрика
Рейтинг@Mail.ru