[ Сегодня на трекере фрилич! Идет свободное скачивание без начисления Download ]

Перевозчик / Transporter: The Series (2014) HDTV [1080i] / WEB-DL [1080p] (сезон 2, серии 1-12 из 12) (BaibaKo)

 

Создавать темы 22-Мар-2015 20:50

-Перевозчик / Transporter: The Series (2014) HDTV [1080i] / WEB-DL [1080p] (сезон 2, серии 1-12 из 12) (BaibaKo)
«One man, Three rules, One goal...»
- Производство: Канада, Франция, США, Германия
Жанр: боевик, криминал
Перевод: Многоголосый закадровый, профессиональный - BaibaKo
Автор перевода: Наталья Черненко
Озвучка: Артемий Мирон, Елена Григорьева, Татьяна Оболевич и Владимир Курдов
Монтаж: Игорь Лихо
Особая благодарность alexandr2506 за помощь в подготовке релиза.
Сэмпл
Режиссер: Брэд Тернер, Эрик Валетт, Энди Микита
Актеры: Крис Вэнс, Андреа Ошварт, Дэльфина Шанеак, Чарли Хюбнер, Франсуа Берлеан, Жан-Поль Мано, Джулиан Ричингс, Джейк Майклс, Джош Блэкер, Ной Кэппи и др.
Описание фильма:
Перевозчик — экшн-телесериал по мотивам одноимённой серии фильмов Люка Бессона. В центре сюжета бывший сотрудник Сил специального назначения Фрэнк Мартин, ныне перевозчик разных грузов. Он не задает лишних вопросов и всегда соблюдает чёткие правила: "Никогда не изменяй условия сделки", "Никаких имён", "Никогда не открывать груз". Его точность вождения и боевые навыки позволяют ему выжить в самых опасных ситуациях на протяжении всей миссии.
Продолжительность: ~ 00:51:00 серия
Качество видео: HDTV 1080i (1-6 серии) | WEB-DL 1080p (7-12 серии)
Видеокодек: MPEG-2 | MPEG-4 AVC/H.264
Битрейт видео: ~11,9 Мбит/сек | ~4800-5000 Кбит/сек
Размер кадра: 1920x1080 (1.778)
Аудио #1: AC3, 6 каналов, 384 Кбит/сек - русский (многоголосый закадровый)
Аудио #2: AC3, 6 каналов, 384 Кбит/сек - английский (оригинал)

MediaInfo

Полное имя : D:\Transporter_The_Series_s2_HDTV1080i_BaibaKo_[NNM-CLUB]\Transporter.The.Series.s02e01.HDTV1080i.Rus.Eng.BaibaKo.tv.ts
Формат : MPEG-TS
Размер файла : 4,76 Гбайт
Продолжительность : 51 м.
Режим общего битрейта : Переменный
Общий поток : 13,3 Мбит/сек
Ограничения прав : 14+
Видео
Идентификатор : 4113 (0x1011)
Идентификатор меню : 1 (0x1)
Формат : MPEG Video
Версия формата : Version 2
Профиль формата : [email protected]
Параметр BVOP формата : Да
Параметр матрицы формата : Выборочная
Параметр GOP формата : M=3, N=15
Идентификатор кодека : 2
Продолжительность : 51 м.
Вид битрейта : Переменный
Битрейт : 11,9 Мбит/сек
Максимальный битрейт : 24,0 Мбит/сек
Ширина : 1920 пикселей
Высота : 1080 пикселей
Соотношение сторон : 16:9
Частота кадров : 29,970 кадров/сек
Цветовое пространство : YUV
Субдискретизация насыщенности : 4:2:0
Битовая глубина : 8 бит
Тип развёртки : Чересстрочная
Порядок развёртки : Верхнее поле первое
Метод сжатия : С потерями
Бит/(Пиксели*Кадры) : 0.191
Временной код первого кадра : 00:00:00;00
Оригинал временного кода : Group of pictures header
Размер потока : 4,24 Гбайт (89%)
Аудио #1
Идентификатор : 4352 (0x1100)
Идентификатор меню : 1 (0x1)
Формат : AC-3
Формат/Информация : Audio Coding 3
Расширение режима : CM (complete main)
Параметр Endianness формата : Big
Идентификатор кодека : 129
Продолжительность : 51 м.
Вид битрейта : Постоянный
Битрейт : 384 Кбит/сек
Каналы : 6 каналов
Расположение каналов : Front: L C R, Side: L R, LFE
Частота : 48,0 КГц
Битовая глубина : 16 бит
Метод сжатия : С потерями
Размер потока : 141 Мбайт (3%)
Язык : Russian
Аудио #2
Идентификатор : 4353 (0x1101)
Идентификатор меню : 1 (0x1)
Формат : AC-3
Формат/Информация : Audio Coding 3
Расширение режима : CM (complete main)
Параметр Endianness формата : Big
Идентификатор кодека : 129
Продолжительность : 51 м.
Вид битрейта : Постоянный
Битрейт : 384 Кбит/сек
Каналы : 6 каналов
Расположение каналов : Front: L C R, Side: L R, LFE
Частота : 48,0 КГц
Битовая глубина : 16 бит
Метод сжатия : С потерями
Задержка видео : 28 мс.
Размер потока : 141 Мбайт (3%)
Язык : English
Текст #1
Идентификатор : 4113 (0x1011)-CC1
Идентификатор меню : 1 (0x1)
Формат : EIA-608
Режим смешивания : A/53 / DTVCC Transport
Режим смешивания, доп. информация : Muxed in Video #1
Продолжительность : 51 м.
Вид битрейта : Постоянный
Размер потока : 0,00 байт (0%)
Текст #2
Идентификатор : 4113 (0x1011)-1
Идентификатор меню : 1 (0x1)
Формат : EIA-708
Режим смешивания : A/53 / DTVCC Transport
Режим смешивания, доп. информация : Muxed in Video #1
Продолжительность : 51 м.
Вид битрейта : Постоянный
Размер потока : 0,00 байт (0%)

Список серий

01. 2B Or Not 2B / Быть или не быть
02. We Go Back / Вернуться назад
03. Sex Lies And Video Tapes / Секс, ложь и кино
04. Boom / Бум
05. Beacon Of Hope / Луч надежды
06. Diva / Дива
07. T2 / T2
08. Chimera / Химера
09. Euphro / Ефро
10. Trust / Доверие
11. Sixteen Hands / Шестнадцать рук
12. End Game / Конец игры
Скриншоты:

Дополнительные скриншоты

Яндекс.Метрика
Рейтинг@Mail.ru