Отцовство / Vaterfreuden (2014,мелодрама, комедия) HDRip-AVC | L1

 

Создавать темы 21-Мар-2015 18:57

-Отцовство / Vaterfreuden (2014)-Информация о фильме
Название: Отцовство
Оригинальное название: Vaterfreuden
Год выхода: 2014
Жанр: мелодрама, комедия
Режиссер: Маттиас Швайгхефер
В ролях: Маттиас Швайгхефер, Изабелл Поллак, Фридрих Мюке, Том Бек, Наталия Белицки, Лина Хюскерб Мориц Гровеб Александр Куон, Фиона Ноймайр, Катарина Шюттлер
О фильме:
Феликс — тридцатилетний холостяк, гоняющий по Мюнхену на велосипеде, иногда видящийся со знакомой девушкой ради коротких, но продуктивных встреч. Все его друзья уже давно ведут семейную жизнь, имеют по паре-тройке детей и погрязли в быту. Жизнь Феликса вполне его устраивает, до того момента, как к нему вваливается его незадачливый младший брат со своим зверьком. И вот тут-то жизнь парня резко меняется. Зверек умудряется в буквальном смысле лишить парня возможности быть отцом.

Страна: Германия
Студия: Pantaleon Films, Wiedemann & Berg Filmproduktion
Продолжительность: 01:50:29
Перевод: Любительский одноголосый [Виктор Береговых]
Файл
Кодек: AVC
Качество: HDRip-AVC
Видео: 720x304, 1503 kbps, 24 fps, 0,286 Bits/(Pixel*Frame)
Звук:
1. AC3, 48 kHz, 2 ch, 192 kbps - RUS
2. AC3, 48 kHz, 2 ch, 192 kbps - GER
Субтитры: Немецкие, английские, русские

MI

General
Unique ID : 194784304274346991634383996881114059148 (0x928A17A97BB9ABDC988A7E4E42B1518C)
Complete name : I:Vaterfreuden.2014.L1.HRRip-AVC_by_Bathory.mkv
Format : Matroska
Format version : Version 4 / Version 2
File size : 1.45 GiB
Duration : 1h 50mn
Overall bit rate : 1 884 Kbps
Movie name : Vaterfreuden [2014] [720p] VO
Encoded date : UTC 2015-03-21 16:14:48
Writing application : mkvmerge v7.7.0 ('Six Voices') 64bit built on Feb 28 2015 23:39:33
Writing library : libebml v1.3.1 + libmatroska v1.4.2
_STATISTICS_WRITING_APP : mkvmerge v7.7.0 ('Six Voices') 64bit built on Feb 28 2015 23:39:33
_STATISTICS_WRITING_DATE_UTC : 2015-03-21 16:14:48
_STATISTICS_TAGS : BPS DURATION NUMBER_OF_FRAMES NUMBER_OF_BYTES
DURATION : 01:43:19.465000000
NUMBER_OF_FRAMES : 1196
NUMBER_OF_BYTES : 58544
Video
ID : 1
Format : AVC
Format/Info : Advanced Video Codec
Format profile : [email protected]
Format settings, CABAC : Yes
Format settings, ReFrames : 12 frames
Codec ID : V_MPEG4/ISO/AVC
Duration : 1h 50mn
Bit rate : 1 503 Kbps
Width : 720 pixels
Height : 304 pixels
Display aspect ratio : 2.35:1
Frame rate mode : Constant
Frame rate : 24.000 fps
Color space : YUV
Chroma subsampling : 4:2:0
Bit depth : 8 bits
Scan type : Progressive
Bits/(Pixel*Frame) : 0.286
Stream size : 1.13 GiB (78%)
Writing library : x264 core 146 r2538 121396c
Encoding settings : cabac=1 / ref=12 / deblock=1:-2:-2 / analyse=0x3:0x133 / me=umh / subme=11 / psy=1 / psy_rd=1.15:0.15 / mixed_ref=1 / me_range=48 / chroma_me=1 / trellis=2 / 8x8dct=1 / cqm=0 / deadzone=21,11 / fast_pskip=0 / chroma_qp_offset=-3 / threads=12 / lookahead_threads=2 / sliced_threads=0 / nr=0 / decimate=1 / interlaced=0 / bluray_compat=0 / constrained_intra=0 / bframes=16 / b_pyramid=2 / b_adapt=2 / b_bias=0 / direct=3 / weightb=1 / open_gop=0 / weightp=2 / keyint=240 / keyint_min=24 / scenecut=40 / intra_refresh=0 / rc_lookahead=60 / rc=2pass / mbtree=1 / bitrate=1503 / ratetol=1.0 / qcomp=0.60 / qpmin=0 / qpmax=69 / qpstep=4 / cplxblur=20.0 / qblur=0.5 / vbv_maxrate=62500 / vbv_bufsize=78125 / nal_hrd=none / filler=0 / ip_ratio=1.40 / aq=1:1.00
Default : Yes
Forced : No
Audio #1
ID : 2
Format : AC-3
Format/Info : Audio Coding 3
Mode extension : CM (complete main)
Format settings, Endianness : Big
Codec ID : A_AC3
Duration : 1h 50mn
Bit rate mode : Constant
Bit rate : 192 Kbps
Channel(s) : 2 channels
Channel positions : Front: L R
Sampling rate : 48.0 KHz
Bit depth : 16 bits
Compression mode : Lossy
Stream size : 152 MiB (10%)
Language : Russian
Default : Yes
Forced : No
Audio #2
ID : 3
Format : AC-3
Format/Info : Audio Coding 3
Mode extension : CM (complete main)
Format settings, Endianness : Big
Codec ID : A_AC3
Duration : 1h 50mn
Bit rate mode : Constant
Bit rate : 192 Kbps
Channel(s) : 2 channels
Channel positions : Front: L R
Sampling rate : 48.0 KHz
Bit depth : 16 bits
Compression mode : Lossy
Stream size : 152 MiB (10%)
Language : German
Default : No
Forced : No
Text #1
ID : 4
Format : UTF-8
Codec ID : S_TEXT/UTF8
Codec ID/Info : UTF-8 Plain Text
Language : German
Default : No
Forced : No
Text #2
ID : 5
Format : UTF-8
Codec ID : S_TEXT/UTF8
Codec ID/Info : UTF-8 Plain Text
Language : English
Default : No
Forced : No
Text #3
ID : 6
Format : UTF-8
Codec ID : S_TEXT/UTF8
Codec ID/Info : UTF-8 Plain Text
Title : [М. Васильев]
Language : Russian
Default : No
Forced : No
Menu
00:00:00.000 : en:00:00:00.000
00:10:28.958 : en:00:10:28.958
00:18:55.250 : en:00:18:55.250
00:30:58.000 : en:00:30:58.000
00:39:49.875 : en:00:39:49.875
00:51:38.500 : en:00:51:38.500
01:03:07.208 : en:01:03:07.208
01:12:18.250 : en:01:12:18.250
01:21:34.792 : en:01:21:34.792
01:31:51.000 : en:01:31:51.000
01:36:59.417 : en:01:36:59.417
01:44:02.292 : en:01:44:02.292
-- ----
Яндекс.Метрика
Рейтинг@Mail.ru