[ Сегодня на трекере фрилич! Идет свободное скачивание без начисления Download ]

Плата по счетчику (2015) SATRip (серия 1-4 из 4)

 

Создавать темы 20-Мар-2015 19:04

-Плата по счетчику (2015) SATRip- Производство: Россия / "Стар Медиа"
Жанр: драма, криминал
Режиссер: Кирилл Капица
Актеры: Алексей Комашко, Анастасия Рубова, Елена Руфанова, Елена Мартыненко, Александр Кудренко, Анатолий Кондюбов, Геша Меньшиков, Александр Большаков, Александр Демич, Владимир Севостьянихин, Александр Устинов, Константин Кайнов, Юрий Елагин, Артур Литвинов, Сергей Шкарбан, Александр Тютрюмов, Самвел Мужикян, Станислав Осколков, Наталья Корольская, Анна Фомина, Игорь Алимджанов, Анита Бумагина, Эрик Кения, Ирина Коваленко, Олег Панин
Описание фильма:
Простой таксист Павел, у которого после десяти лет совместной жизни с женой начались семейные проблемы, волею случая, встревает в бандитские "разборки". В багажнике его машины оказывается небольшой портфель, набитый бриллиантами. Ему приходится спасать свою жизнь и жизнь дочки, которую похитили бандиты банды Шампура после того, как бриллианты у Павла отобрали полицейские-оборотни. Силы казалось бы неравны, но на помощь Павлу приходят его друзья-таксисты. Развязка вроде как близка, но тут в борьбу вступает третья сила - настоящие владельцы портфеля с камнями...
Дата российской премьеры: 20 марта 2015
Качество видео: SATRip
Продолжительность: ~00:44:00 серия
Видеокодек: XviD
Формат: AVI
Битрейт видео: ~1800 kbps
Размер кадра: 720x448
Аудиокодек: МР3, 2 ch
Битрейт аудио: 128 kbps Общее

MediaInfo:

Полное имя : D:\Плата по счётчику.2015.SATRip.\Plata.po.schetchiku.01.2015.SATRip.avi
Формат : AVI
Формат/Информация : Audio Video Interleave
Размер файла : 622 Мбайт
Продолжительность : 44 м.
Общий поток : 1938 Кбит/сек
Программа кодирования : VirtualDubMod 1.5.10.3 | www.virtualdub-fr.org || (build 2550/release)
Библиотека кодирования : VirtualDub build 32507/release
Видео
Идентификатор : 0
Формат : MPEG-4 Visual
Профиль формата : Advanced [email protected]
Параметр BVOP формата : 2
Параметр QPel формата : Нет
Параметр GMC формата : Без точки перехода
Параметр матрицы формата : Default (MPEG)
Идентификатор кодека : XVID
Идентификатор кодека/Подсказка : XviD
Продолжительность : 44 м.
Битрейт : 1800 Кбит/сек
Ширина : 720 пикселей
Высота : 448 пикселей
Соотношение сторон : 16:10
Частота кадров : 25,000 кадров/сек
Цветовое пространство : YUV
Субдискретизация насыщенности : 4:2:0
Битовая глубина : 8 бит
Тип развёртки : Прогрессивная
Метод сжатия : С потерями
Бит/(Пиксели*Кадры) : 0.223
Размер потока : 578 Мбайт (93%)
Библиотека кодирования : XviD 1.2.1 (UTC 2008-12-04)
Аудио
Идентификатор : 1
Формат : MPEG Audio
Версия формата : Version 1
Профиль формата : Layer 3
Режим : Joint stereo
Идентификатор кодека : 55
Идентификатор кодека/Подсказка : MP3
Продолжительность : 44 м.
Вид битрейта : Постоянный
Битрейт : 128 Кбит/сек
Каналы : 2 канала
Частота : 48,0 КГц
Метод сжатия : С потерями
Размер потока : 41,1 Мбайт (7%)
Выравнивание : Соединение по промежуткам
Продолжительность промежутка : 40 мс. (1,00 видеокадр)
Время предзагрузки промежутка : 504 мс.
Библиотека кодирования : LAME3.99r
Настройки программы : -m j -V 4 -q 2 -lowpass 17 -b 128
Скриншоты:

Время раздачи: 24/7, до 5 скачавших.
Яндекс.Метрика
Рейтинг@Mail.ru