Кроваво-красное / Profondo Rosso / Deep Red (1975) BDRemux [1080p]

 

Создавать темы 20-Мар-2015 02:12

-Кроваво-красное / Profondo Rosso / Deep Red (1975) BDRemux [1080p]-«Flesh Ripped clean to the Bone... And the Blood runs Red...»- Русское название: Кроваво-красное
Оригинальное название: Profondo Rosso
Производство: Италия, Rizzoli Film S.p.a., Seda Spettacoli
Жанр: Триллер, Ужасы, Детектив
Описание фильма:
Во время лекции на конгрессе парапсихологии женщина, читавшая лекцию и угадывавшая имена присутствующих в зале и что у них в кармане, забилась в припадке, утверждая, что в зале смерть, что она видит ужасное убийство на вилле, что она слышит детскую песенку. И в ту же ночь ее зверски зарезал огромным тесаком человек в плаще, которого видел джазовый пианист. Волей неволей, пианист невольно втягивается в эту историю и начинает свое собственное расследование.
Режиссер: Дарио Ардженто
Актеры: Дэвид Хеммингс, Дария Николоди, Габриэль Лавиа, Маша Мериль, Эрос Паньи, Джулиана Каландра, Пьеро Маццинги, Глауцо Маури, Клара Каламаи, Aldo Bonamano, Лиана Дель Бальцо, Витторио Фанфони, Данте Фьоретти, Джеральдин Хупер, Якопо Мариани, Фурио Меникони

Продолжительность: 02:06:34
Перевод: Профессиональный (Многоголосый закадровый), Авторский (Одноголосый закадровый)
Субтитры: Русские, Английские (вшитые, отключаемые)
Видеокодек: MPEG-4 AVC/H.264
Битрейт видео: ~25.000kb/s
Размер кадра: 1920x1080p
Качество видео: BDRemux
Аудио:
Аудио 1: Dolby Digital Audio Russian 5.1 / AC3 / 48 kHz / 384 kbps / CBR (Многоголосый - R5)
Аудио 2: Dolby Digital Audio Russian 2.0 / AC3 / 48 kHz / 192 kbps / CBR (Многоголосый - Твин)
Аудио 3: Dolby Digital Audio Russian 2.0 / AC3 / 48 kHz / 192 kbps / CBR (Авторский - А. Мудров)
Аудио 4: Dolby Digital Audio Russian 2.0 / AC3 / 48 kHz / 192 kbps / CBR (Авторский - А. Алексеев)
Аудио 5: Dolby Digital Audio Russian 2.0 / AC3 / 48 kHz / 192 kbps / CBR (Авторский - К. Дьяконов)
Аудио 6: Dolby Digital Audio Russian 2.0 / AC3 / 48 kHz / 192 kbps / CBR (Авторский - Л. Володарский)
Аудио 7: Dolby Digital Audio Russian 2.0 / AC3 / 48 kHz / 192 kbps / CBR (Авторский - ?)
Аудио 8: DTS Audio Russian 5.1 / 48 kHz / 1510 kbps / 24-bit (Авторский - А. Гаврилов)
Аудио 9: DTS-HD Master Audio Italian 5.1 / 48 kHz / 4022 kbps / 24-bit (DTS Core: 5.1 / 48 kHz / 1509 kbps / 24-bit)
Аудио 10: Dolby Digital Audio English 2.0 / AC3 / 48 kHz / 224 kbps / CBR

Дополнительная информация и благодарности:

Дорожка №8 получена наложением чистого голоса на центр декодированного DTS-HD MA. Ввиду некоторых обстоятельств закодирована в дтс
За дорогу с А. Мудровым спасибо saavin
За дороги Дьяконова, Алексеева и Володарского спасибо участникам форума e180 (Nadoelo, Nosferatu и Erretik)
За собранный Ремукс спасибо Тарантиныч

Отчет MI

Общее
Уникальный идентификатор                 : 196378857491466026390505127067426991747 (0x93BD3134977E986EB60235C22503AE83)
Полное имя                               : D:\TORRENT\FILMS\Deep Red (1080p Bluray Remux).mkv
Формат                                   : Matroska
Версия формата                           : Version 2
Размер файла                             : 28,6 Гбайт
Продолжительность                        : 2 ч. 6 м.
Режим общего битрейта                    : Переменный
Общий поток                              : 32,4 Мбит/сек
Название фильма                          : Deep.Red.1975.1080p.Bluray.DC.AVC.Remux
Дата кодирования                         : UTC 2012-01-09 22:19:47
Программа кодирования                    : mkvmerge v4.9.1 ('Ich will') сборка от Jul 11 2011 23:53:15
Библиотека кодирования                   : libebml v1.2.1 + libmatroska v1.1.1
Видео
Идентификатор                            : 1
Формат                                   : AVC
Формат/Информация                        : Advanced Video Codec
Профиль формата                          : [url=mailto:[email protected]][email protected][/url]
Параметр CABAC формата                   : Да
Параметр ReFrames формата                : 3 кадра
Идентификатор кодека                     : V_MPEG4/ISO/AVC
Продолжительность                        : 2 ч. 6 м.
Вид битрейта                             : Переменный
Максимальный битрейт                     : 35,0 Мбит/сек
Ширина                                   : 1920 пикселей
Высота                                   : 1080 пикселей
Соотношение сторон                       : 16:9
Режим частоты кадров                     : Постоянный
Частота кадров                           : 23,976 кадра/сек
Стандарт вещания                         : NTSC
Цветовое пространство                    : YUV
Субдискретизация насыщенности            : 4:2:0
Битовая глубина                          : 8 бит
Тип развёртки                            : Прогрессивная
Заголовок                                : uralmix
Default                                  : Да
Forced                                   : Нет
Основные цвета                           : BT.709
Характеристики трансфера                 : BT.709
Коэффициенты матрицы                     : BT.709
colour_range                             : Limited
Аудио #1
Идентификатор                            : 2
Формат                                   : AC-3
Формат/Информация                        : Audio Coding 3
Расширение режима                        : CM (complete main)
Параметр Endianness формата              : Big
Идентификатор кодека                     : A_AC3
Продолжительность                        : 2 ч. 6 м.
Вид битрейта                             : Постоянный
Битрейт                                  : 384 Кбит/сек
Каналы                                   : 6 каналов
Расположение каналов                     : Front: L C R, Side: L R, LFE
Частота                                  : 48,0 КГц
Битовая глубина                          : 16 бит
Метод сжатия                             : С потерями
Размер потока                            : 348 Мбайт (1%)
Заголовок                                : R5 Синема Престиж
Язык                                     : Russian
Default                                  : Нет
Forced                                   : Нет
Аудио #2
Идентификатор                            : 3
Формат                                   : AC-3
Формат/Информация                        : Audio Coding 3
Расширение режима                        : CM (complete main)
Параметр Endianness формата              : Big
Идентификатор кодека                     : A_AC3
Продолжительность                        : 2 ч. 6 м.
Вид битрейта                             : Постоянный
Битрейт                                  : 192 Кбит/сек
Каналы                                   : 2 канала
Расположение каналов                     : Front: L R
Частота                                  : 48,0 КГц
Битовая глубина                          : 16 бит
Метод сжатия                             : С потерями
Размер потока                            : 174 Мбайт (1%)
Заголовок                                : Твин, 2008
Язык                                     : Russian
Default                                  : Да
Forced                                   : Нет
Аудио #3
Идентификатор                            : 4
Формат                                   : AC-3
Формат/Информация                        : Audio Coding 3
Расширение режима                        : CM (complete main)
Параметр Endianness формата              : Big
Идентификатор кодека                     : A_AC3
Продолжительность                        : 2 ч. 6 м.
Вид битрейта                             : Постоянный
Битрейт                                  : 192 Кбит/сек
Каналы                                   : 2 канала
Расположение каналов                     : Front: L R
Частота                                  : 48,0 КГц
Битовая глубина                          : 16 бит
Метод сжатия                             : С потерями
Размер потока                            : 174 Мбайт (1%)
Заголовок                                : авторский - Андрей Мудров
Язык                                     : Russian
Default                                  : Нет
Forced                                   : Нет
Аудио #4
Идентификатор                            : 5
Формат                                   : AC-3
Формат/Информация                        : Audio Coding 3
Расширение режима                        : CM (complete main)
Параметр Endianness формата              : Big
Идентификатор кодека                     : A_AC3
Продолжительность                        : 2 ч. 6 м.
Вид битрейта                             : Постоянный
Битрейт                                  : 192 Кбит/сек
Каналы                                   : 2 канала
Расположение каналов                     : Front: L R
Частота                                  : 48,0 КГц
Битовая глубина                          : 16 бит
Метод сжатия                             : С потерями
Размер потока                            : 174 Мбайт (1%)
Заголовок                                : авторский - Антон Алексеев
Язык                                     : Russian
Default                                  : Нет
Forced                                   : Нет
Аудио #5
Идентификатор                            : 6
Формат                                   : AC-3
Формат/Информация                        : Audio Coding 3
Расширение режима                        : CM (complete main)
Параметр Endianness формата              : Big
Идентификатор кодека                     : A_AC3
Продолжительность                        : 2 ч. 6 м.
Вид битрейта                             : Постоянный
Битрейт                                  : 192 Кбит/сек
Каналы                                   : 2 канала
Расположение каналов                     : Front: L R
Частота                                  : 48,0 КГц
Битовая глубина                          : 16 бит
Метод сжатия                             : С потерями
Размер потока                            : 174 Мбайт (1%)
Заголовок                                : авторский - Константин Дьяконов
Язык                                     : Russian
Default                                  : Нет
Forced                                   : Нет
Аудио #6
Идентификатор                            : 7
Формат                                   : AC-3
Формат/Информация                        : Audio Coding 3
Расширение режима                        : CM (complete main)
Параметр Endianness формата              : Big
Идентификатор кодека                     : A_AC3
Продолжительность                        : 2 ч. 6 м.
Вид битрейта                             : Постоянный
Битрейт                                  : 192 Кбит/сек
Каналы                                   : 2 канала
Расположение каналов                     : Front: L R
Частота                                  : 48,0 КГц
Битовая глубина                          : 16 бит
Метод сжатия                             : С потерями
Размер потока                            : 174 Мбайт (1%)
Заголовок                                : авторский - Леонид Володарский
Язык                                     : Russian
Default                                  : Нет
Forced                                   : Нет
Аудио #7
Идентификатор                            : 8
Формат                                   : AC-3
Формат/Информация                        : Audio Coding 3
Расширение режима                        : CM (complete main)
Параметр Endianness формата              : Big
Идентификатор кодека                     : A_AC3
Продолжительность                        : 2 ч. 6 м.
Вид битрейта                             : Постоянный
Битрейт                                  : 192 Кбит/сек
Каналы                                   : 2 канала
Расположение каналов                     : Front: L R
Частота                                  : 48,0 КГц
Битовая глубина                          : 16 бит
Метод сжатия                             : С потерями
Размер потока                            : 174 Мбайт (1%)
Заголовок                                : одноголосый
Язык                                     : Russian
Default                                  : Нет
Forced                                   : Нет
Аудио #8
Идентификатор                            : 9
Формат                                   : DTS
Формат/Информация                        : Digital Theater Systems
Режим                                    : 16
Параметр Endianness формата              : Big
Идентификатор кодека                     : A_DTS
Продолжительность                        : 2 ч. 6 м.
Вид битрейта                             : Постоянный
Битрейт                                  : 1510 Кбит/сек
Каналы                                   : 6 каналов
Расположение каналов                     : Front: L C R, Side: L R, LFE
Частота                                  : 48,0 КГц
Битовая глубина                          : 24 бит
Метод сжатия                             : С потерями
Размер потока                            : 1,33 Гбайт (5%)
Заголовок                                : авторский - Андрей Гаврилов
Язык                                     : Russian
Default                                  : Нет
Forced                                   : Нет
Аудио #9
Идентификатор                            : 10
Формат                                   : DTS
Формат/Информация                        : Digital Theater Systems
Профиль формата                          : MA / Core
Режим                                    : 16
Параметр Endianness формата              : Big
Идентификатор кодека                     : A_DTS
Продолжительность                        : 2 ч. 6 м.
Вид битрейта                             : Переменный
Битрейт                                  : Неизвестно / 1509 Кбит/сек
Каналы                                   : 6 каналов
Расположение каналов                     : Front: L C R, Side: L R, LFE
Частота                                  : 48,0 КГц
Битовая глубина                          : 24 бит
Метод сжатия                             : Без потерь / Lossy
Заголовок                                : italian
Язык                                     : Italian
Default                                  : Нет
Forced                                   : Нет
Аудио #10
Идентификатор                            : 11
Формат                                   : AC-3
Формат/Информация                        : Audio Coding 3
Расширение режима                        : CM (complete main)
Параметр Endianness формата              : Big
Идентификатор кодека                     : A_AC3
Продолжительность                        : 2 ч. 6 м.
Вид битрейта                             : Постоянный
Битрейт                                  : 224 Кбит/сек
Каналы                                   : 2 канала
Расположение каналов                     : Front: L R
Частота                                  : 48,0 КГц
Битовая глубина                          : 16 бит
Метод сжатия                             : С потерями
Размер потока                            : 203 Мбайт (1%)
Заголовок                                : english
Язык                                     : English
Default                                  : Нет
Forced                                   : Нет
Текст #1
Идентификатор                            : 12
Формат                                   : UTF-8
Идентификатор кодека                     : S_TEXT/UTF8
Идентификатор кодека/Информация          : UTF-8 Plain Text
Заголовок                                : R5
Язык                                     : Russian
Default                                  : Нет
Forced                                   : Нет
Текст #2
Идентификатор                            : 13
Формат                                   : UTF-8
Идентификатор кодека                     : S_TEXT/UTF8
Идентификатор кодека/Информация          : UTF-8 Plain Text
Язык                                     : English
Default                                  : Нет
Forced                                   : Нет
Меню
00:00:00.000                             : en:00:00:00.000
00:10:41.140                             : en:00:10:41.140
00:21:14.690                             : en:00:21:14.690
00:31:08.533                             : en:00:31:08.533
00:39:58.938                             : en:00:39:58.938
00:52:54.004                             : en:00:52:54.004
01:05:27.340                             : en:01:05:27.340
01:13:39.040                             : en:01:13:39.040
01:20:57.394                             : en:01:20:57.394
01:33:48.289                             : en:01:33:48.289
01:52:17.189                             : en:01:52:17.189
02:04:42.141                             : en:02:04:42.141
Скриншоты:
Яндекс.Метрика
Рейтинг@Mail.ru